↑↓torrent.by
Поиск
Логин:  Регистрация
Пароль:

Веревка: Месть / La Soga 3 Vengeance (2023) WEB-DL 1080p от ELEKTRI4KA | D | Локализованная версия

download Скачать торрент-файл   magnet Магнитная ссылка Размер: 3.10 GB Добавлен: 2024-06-29 05:00
Пиры будут получены из сети DHT
Последний сидер был замечен сегодня в 00:03
«Наемный убийца возвращается в родную Доминикану, движимый жаждой мести, но сам становится жертвой преследования» Информация о фильме Название: Веревка: Месть Оригинальное название: La Soga 3 Vengeance Год выхода: 2023 Жанр: боевик, триллер, драма, криминал Режиссер: Мэнни Перес В ролях: Мэнни Перес, Феликс Херман, Уилсон Уренья, Андерсон Гарсия, Ана Лапойнт, Джейсон Андорс, Ованди Камило, Марлен Де Ла Круз, Леони Доне, Нельсон Хавьер, Марина Перес, Анеуди Поланко, Бренда Санчес, Хорди Верас, Франсиско Алехандро Васкес О фильме: Один из самых опасных наемных убийц Доминиканской Республики, Ла Сога по прозвищу Веревка, прилетает на родину, движимый жаждой мести. Но здесь мужчина из охотника сам становится объектом преследования, ведь в его руках находится информация, с которой можно привлечь к ответственности всех продажных чиновников страны. И теперь за жизнь самого опасного человека в Доминикане назначается вознаграждение в полмиллиона долларов. Ла Сога понимает, что больше не может доверять никому, включая членов собственной семьи. Но он не человек, а настоящая машина для убийств, а Веревкой его назвали потому, что убежать от него невозможно. Так что же сможет разорвать этот порочный круг мести? Выпущено: Доминикана, США / Conuco Productions Продолжительность: 01:18:11 Озвучивание: Дублированное | Официальное Файл Формат: MKV Качество: WEB-DL 1080p | Локализованная версия Видео: MPEG-4 AVC, 5000 Kb/s, 1920x804 Аудио: Russian: AC3, 384 Kb/s (6 ch) / E-AC3, 384 Kb/s (6 ch) Субтитры: Russian (Forced) - хардсаб, English (Full) Дополнительно: Нет Релиз группы:  | Мы в Telegram:
[+] Инфо-файл:Complete name: Verevka.Mest.2023.WEB-DL.1080p.ELEKTRI4KA.mkv Format: Matroska Format version: Version 4 File size: 3.10 GiB Duration: 1 h 18 min Overall bit rate: 5 672 kb/s Movie name: Verevka.Mest.2023.WEB-DL.1080p.ELEKTRI4KA. Encoded date: UTC 2024-06-28 15:07:32 Writing application: mkvmerge v8.3.0 ('Over the Horizon') 64bit Writing library: libebml v1.3.1 + libmatroska v1.4.2 Video ID: 1 Format: AVC Format/Info: Advanced Video Codec Format profile: High@L4 Format settings: CABAC / 3 Ref Frames Format settings, CABAC: Yes Format settings, RefFrames: 3 frames Codec ID: V_MPEG4/ISO/AVC Duration: 1 h 18 min Bit rate: 5 000 kb/s Width: 1 920 pixels Height: 804 pixels Display aspect ratio: 2.40:1 Frame rate mode: Constant Frame rate: 25.000 FPS Color space: YUV Chroma subsampling: 4:2:0 Bit depth: 8 bits Scan type: Progressive Bits/(Pixel*Frame): 0.130 Stream size: 2.68 GiB (86%) Writing library: x264 core 164 r3095 baee400 Encoding settings: cabac=1 / ref=4 / deblock=1:-1:-1 / analyse=0x3:0x133 / me=umh / subme=9 / psy=1 / psy_rd=0.40:1.00 / mixed_ref=1 / me_range=24 / chroma_me=1 / trellis=0 / 8x8dct=1 / cqm=0 / deadzone=21, 11 / fast_pskip=1 / chroma_qp_offset=-2 / threads=3 / lookahead_threads=1 / sliced_threads=0 / nr=0 / decimate=1 / interlaced=0 / bluray_compat=0 / stitchable=1 / constrained_intra=0 / bframes=8 / b_pyramid=1 / b_adapt=0 / b_bias=0 / direct=3 / weightb=1 / open_gop=0 / weightp=2 / keyint=75 / keyint_min=38 / scenecut=0 / intra_refresh=0 / rc_lookahead=40 / rc=2pass / mbtree=1 / bitrate=5000 / ratetol=1.0 / qcomp=0.80 / qpmin=1 / qpmax=69 / qpstep=4 / cplxblur=20.0 / qblur=0.5 / vbv_maxrate=7500 / vbv_bufsize=10000 / nal_hrd=none / filler=0 / ip_ratio=1.40 / aq=1:1.00 Default: Yes Forced: No Color range: Limited Color primaries: BT.709 Transfer characteristics: BT.709 Matrix coefficients: BT.709 Audio #1 ID: 2 Format: AC-3 Format/Info: Audio Coding 3 Commercial name: Dolby Digital Codec ID: A_AC3 Duration: 1 h 18 min Bit rate mode: Constant Bit rate: 384 kb/s Channel(s): 6 channels Channel layout: L R C LFE Ls Rs Sampling rate: 48.0 kHz Frame rate: 31.250 FPS (1536 SPF) Bit depth: 16 bits Compression mode: Lossy Stream size: 215 MiB (7%) Title: DUB AC3 Language: Russian Service kind: Complete Main Default: Yes Forced: Yes Audio #2 ID: 3 Format: E-AC-3 Format/Info: Enhanced AC-3 Commercial name: Dolby Digital Plus Codec ID: A_EAC3 Duration: 1 h 18 min Bit rate mode: Constant Bit rate: 384 kb/s Channel(s): 6 channels Channel layout: L R C LFE Ls Rs Sampling rate: 48.0 kHz Frame rate: 31.250 FPS (1536 SPF) Compression mode: Lossy Stream size: 215 MiB (7%) Title: DUB EAC3 Language: Russian Service kind: Complete Main Default: No Forced: No Text ID: 4 Format: UTF-8 Codec ID: S_TEXT/UTF8 Codec ID/Info: UTF-8 Plain Text Duration: 1 h 12 min Bit rate: 42 b/s Count of elements: 847 Stream size: 22.9 KiB (0%) Language: English Default: No Forced: No
[+] Скриншоты

Всего файлов в раздаче: 1 
Verevka.Mest.2023.WEB-DL.1080p.ELEKTRI4KA.mkv3.10 GB

Похожие раздачи по запросу - Веревка
2024-06-29 magnet Веревка: Месть / La Soga 3 Vengeance (2023) WEB-DLRip от ELEKTRI4KA | D | Локализованная версия 1.37 GB ↑ 0 ↓ 0

Комментарии


Зарегистрируйтесь чтобы добавить комментарий
Торрент клиент
byTorrent - программа для загрузки торрент-файлов.

Скачать byTorrent.exe (1,5 МБ)

Скачать byTorrent.zip (0,6 МБ)

Поддержи torrent.by
российских рублей
(300 российских рублей это 4$)

Обратная связь rss

End game ©