↑↓torrent.by
Поиск
Логин:  Регистрация
Пароль:

Заезд / Ride (2024) WEB-DLRip-AVC | L

download Скачать торрент-файл   magnet Магнитная ссылка Размер: 2.17 GB Раздают: 5 Качают: 0 Добавлен: il68k 2024-06-29 08:17
Пиры будут получены из сети DHT
Последний сидер был замечен сегодня в 12:22
Информация о фильме Название: Заезд Оригинальное название: Ride Год выхода: 2024 Жанр: драма, криминал Режиссер: Джейк Эллин В ролях: Джейк Эллин, Си Томас Хауэлл, Форри Джей Смит, Аннабет Гиш, Джош Пласс, Скотт Ривз, Остин Роберт Расселл, Патрик Марни, Зия Карлок, Линдси Шоуп, Роберт Уэй, Лиз Этуотер, Джоди Стелциг О фильме: Питер Хоскинс только что вышел из тюрьмы и живет со своим отцом Джоном, который пытается оплатить лечение своей дочери от рака. Отчаявшись собрать деньги отец и сын прибегают к грабежу. Но после того, как ограбление идет наперекосяк, чтобы сохранить деньги – и свою свободу – дуэт должен перехитрить полицию и шерифа. Страна: США Студия: Margate House Films, Tackle Box Films, Pine Bay Pictures Продолжительность: 01:53:44 Перевод: Любительский (многоголосый закадровый) | RGB Файл Кодек: Н.264 Качество: WEB-DLRip-AVC Видео: MPEG-4 AVC, 1971 kbps, 1024x436 (2.35:1), 23.976 fps, 0.184 bit/pixel, High@L4.1 Звук 1: 48 kHz, AC3 Dolby Digital, 3/2 (L, C, R, l, r) + LFE ch, ~384 kbps | RGB Звук 2: 48 kHz, AC3 Dolby Digital, 3/2 (L, C, R, l, r) + LFE ch, ~384 kbps | Английский Субтитры: английские (full, SDH) Семпл
[+] Скриншоты
[+] MediaInfo
raw : 1024x436p 1:1 @ 24000/1001 fps (cfr)
x264 : using SAR=1/1
x264 : using cpu capabilities: MMX2 SSE2Fast SSSE3 SSE4.2 AVX FMA3 BMI2 AVX2
x264 : profile High, level 4.1, 4:2:0, 8-bit
x264 : frame I:1062  Avg QP:13.81  size: 57570
x264 : frame P:41726 Avg QP:16.59  size: 20634
x264 : frame B:120828 Avg QP:18.32  size:  6250
x264 : consecutive B-frames:  3.0%  4.9% 11.7% 38.0% 14.2% 21.8%  2.6%  2.2%  0.5%  0.4%  0.2%  0.5%  0.1%
x264 : mb I  I16..4: 10.9% 71.2% 17.9%
x264 : mb P  I16..4:  1.7% 16.6%  2.2%  P16..4: 36.7% 26.2% 12.4%  0.0%  0.0%    skip: 4.2%
x264 : mb B  I16..4:  0.1%  1.0%  0.3%  B16..8: 39.3% 13.4%  3.1%  direct: 6.3%  skip:36.6%  L0:44.1% L1:43.6% BI:12.3%
x264 : 8x8 transform intra:79.1% inter:60.1%
x264 : direct mvs  spatial:99.0% temporal:1.0%
x264 : coded y,uvDC,uvAC intra: 84.8% 84.3% 63.5% inter: 25.4% 21.7% 9.6%
x264 : i16 v,h,dc,p: 25% 11% 11% 52%
x264 : i8 v,h,dc,ddl,ddr,vr,hd,vl,hu: 15%  9%  9%  8% 12% 12% 12% 11% 13%
x264 : i4 v,h,dc,ddl,ddr,vr,hd,vl,hu: 35%  7%  4%  7% 11% 10% 10%  8%  9%
x264 : i8c dc,h,v,p: 42% 24% 20% 14%
x264 : Weighted P-Frames: Y:2.5% UV:1.4%
x264 : ref P L0: 50.8%  9.2% 16.4%  5.8%  4.7%  3.0%  2.9%  1.5%  1.5%  1.1%  1.2%  0.9%  1.1%  0.1%  0.0%
x264 : ref B L0: 76.7% 10.3%  4.5%  2.6%  1.5%  1.2%  1.0%  0.6%  0.5%  0.5%  0.3%  0.2%
x264 : ref B L1: 96.1%  3.9%
x264 : kb/s:1966.30

x264 : encoded 163616 frames, 12.67 fps, 1966.30 kb/s
====================================================================
General
Unique ID                                : 303681138255706893882405892745175487637 (0xE476DC19F794509483403D4F01BFD495)
Complete name                            : D:\Zaezd.2024.WEB-DLRip.AVC.mkv
Format                                   : Matroska
Format version                           : Version 4
File size                                : 2.17 GiB
Duration                                 : 1 h 53 min
Overall bit rate                         : 2 736 kb/s
Frame rate                               : 23.976 FPS
Movie name                               : Ride (2024) WEB-DLRip AVC _ vitolinform
Encoded date                             : 2024-06-29 02:05:14 UTC
Writing application                      : mkvmerge v85.0 ('Shame For You') 64-bit
Writing library                          : libebml v1.4.5 + libmatroska v1.7.1
Attachments                              : poster.jpg / log.log

Video
ID                                       : 1
Format                                   : AVC
Format/Info                              : Advanced Video Codec
Format profile                           : High@L4.1
Format settings                          : CABAC / 13 Ref Frames
Format settings, CABAC                   : Yes
Format settings, Reference frames        : 13 frames
Codec ID                                 : V_MPEG4/ISO/AVC
Duration                                 : 1 h 53 min
Bit rate                                 : 1 971 kb/s
Width                                    : 1 024 pixels
Height                                   : 436 pixels
Display aspect ratio                     : 2.35:1
Frame rate mode                          : Constant
Frame rate                               : 23.976 (24000/1001) FPS
Color space                              : YUV
Chroma subsampling                       : 4:2:0
Bit depth                                : 8 bits
Scan type                                : Progressive
Bits/(Pixel*Frame)                       : 0.184
Stream size                              : 1.56 GiB (72%)
Title                                    : Заезд / Ride (2024)
Writing library                          : x264 core 164 r3182 be4f020
Encoding settings                        : cabac=1 / ref=13 / deblock=1:-3:-3 / analyse=0x3:0x113 / me=umh / subme=10 / psy=1 / psy_rd=1.00:0.05 / mixed_ref=1 / me_range=32 / chroma_me=1 / trellis=2 / 8x8dct=1 / cqm=0 / deadzone=21,11 / fast_pskip=0 / chroma_qp_offset=-3 / threads=12 / lookahead_threads=3 / sliced_threads=0 / nr=0 / decimate=0 / interlaced=0 / bluray_compat=0 / constrained_intra=0 / bframes=12 / b_pyramid=2 / b_adapt=2 / b_bias=0 / direct=3 / weightb=1 / open_gop=0 / weightp=2 / keyint=240 / keyint_min=24 / scenecut=40 / intra_refresh=0 / rc_lookahead=60 / rc=2pass / mbtree=0 / bitrate=1971 / ratetol=1.0 / qcomp=0.60 / qpmin=0 / qpmax=69 / qpstep=4 / cplxblur=20.0 / qblur=0.5 / vbv_maxrate=50000 / vbv_bufsize=62500 / nal_hrd=none / filler=0 / ip_ratio=1.40 / pb_ratio=1.30 / aq=1:1.00
Language                                 : English
Default                                  : Yes
Forced                                   : No
Color range                              : Limited
Color primaries                          : BT.709
Transfer characteristics                 : BT.709
Matrix coefficients                      : BT.709

Audio #1
ID                                       : 2
Format                                   : AC-3
Format/Info                              : Audio Coding 3
Commercial name                          : Dolby Digital
Codec ID                                 : A_AC3
Duration                                 : 1 h 53 min
Bit rate mode                            : Constant
Bit rate                                 : 384 kb/s
Channel(s)                               : 6 channels
Channel layout                           : L R C LFE Ls Rs
Sampling rate                            : 48.0 kHz
Frame rate                               : 31.250 FPS (1536 SPF)
Compression mode                         : Lossy
Stream size                              : 312 MiB (14%)
Title                                    : MVO | RGB
Language                                 : Russian
Service kind                             : Complete Main
Default                                  : Yes
Forced                                   : No

Audio #2
ID                                       : 3
Format                                   : AC-3
Format/Info                              : Audio Coding 3
Commercial name                          : Dolby Digital
Codec ID                                 : A_AC3
Duration                                 : 1 h 53 min
Bit rate mode                            : Constant
Bit rate                                 : 384 kb/s
Channel(s)                               : 6 channels
Channel layout                           : L R C LFE Ls Rs
Sampling rate                            : 48.0 kHz
Frame rate                               : 31.250 FPS (1536 SPF)
Compression mode                         : Lossy
Stream size                              : 312 MiB (14%)
Title                                    : English
Language                                 : English
Service kind                             : Complete Main
Default                                  : No
Forced                                   : No

Text #1
ID                                       : 4
Format                                   : UTF-8
Codec ID                                 : S_TEXT/UTF8
Codec ID/Info                            : UTF-8 Plain Text
Duration                                 : 1 h 46 min
Bit rate                                 : 40 b/s
Frame rate                               : 0.169 FPS
Count of elements                        : 1080
Stream size                              : 31.9 KiB (0%)
Title                                    : Full
Language                                 : English
Default                                  : No
Forced                                   : No

Text #2
ID                                       : 5
Format                                   : UTF-8
Codec ID                                 : S_TEXT/UTF8
Codec ID/Info                            : UTF-8 Plain Text
Duration                                 : 1 h 53 min
Bit rate                                 : 50 b/s
Frame rate                               : 0.214 FPS
Count of elements                        : 1456
Stream size                              : 42.2 KiB (0%)
Title                                    : SDH
Language                                 : English
Default                                  : No
Forced                                   : No
Rip by vitolinform

Всего файлов в раздаче: 1 
Zaezd.2024.WEB-DLRip.AVC.mkv2.17 GB

Похожие раздачи по запросу - Заезд
2024-06-29 magnet Заезд / Ride (2024) WEB-DLRip-AVC | L 1.61 GB ↑ 11 ↓ 0
2024-06-29 magnet Заезд / Ride (2024) WEB-DL 1080p | L 5.93 GB ↑ 23 ↓ 1

Комментарии


Зарегистрируйтесь чтобы добавить комментарий
Торрент клиент
byTorrent - программа для загрузки торрент-файлов.

Скачать byTorrent.exe (1,5 МБ)

Скачать byTorrent.zip (0,6 МБ)

Поддержи torrent.by
российских рублей
(300 российских рублей это 4$)

Обратная связь rss

End game ©