↑↓torrent.by
Поиск
Логин:  Регистрация
Пароль:

Заезд / Ride (2024) WEB-DL 1080p | L

download Скачать торрент-файл   magnet Магнитная ссылка Размер: 5.93 GB Раздают: 24 Качают: 1 Добавлен: il68k 2024-06-29 09:09
Пиры будут получены из сети DHT
Последний сидер был замечен сегодня в 12:43
Информация о фильме Название: Заезд Оригинальное название: Ride Год выхода: 2024 Жанр: драма, криминал Режиссер: Джейк Эллин В ролях: Джейк Эллин, Си Томас Хауэлл, Форри Джей Смит, Аннабет Гиш, Джош Пласс, Скотт Ривз, Остин Роберт Расселл, Патрик Марни, Зия Карлок, Линдси Шоуп, Роберт Уэй, Лиз Этуотер, Джоди Стелциг О фильме: Питер Хоскинс только что вышел из тюрьмы и живет со своим отцом Джоном, который пытается оплатить лечение своей дочери от рака. Отчаявшись собрать деньги отец и сын прибегают к грабежу. Но после того, как ограбление идет наперекосяк, чтобы сохранить деньги – и свою свободу – дуэт должен перехитрить полицию и шерифа. Страна: США Студия: Margate House Films, Tackle Box Films, Pine Bay Pictures Продолжительность: 01:53:44 Перевод: Любительский (многоголосый закадровый) | RGB Файл Формат: MKV Качество: WEB-DL 1080p Видео: AVC/H.264, 1920x816, 23.976 fps, ~6694 Kbps Аудио 1: 48 kHz, AC3, 6 ch, ~384 kbps | RGB Аудио 2: 48 kHz, AC3, 6 ch, ~384 kbps | Английский Субтитры: отсутствуют Семпл
[+] Скриншоты
[+] MediaInfo
General
Unique ID                   : 88547157115036526723952303461919117796 (0x429D8FE843A518D493D6D633463C51E4)
Complete name               : E:\RGB\Ride.2024.1080p.WEB.MVO-RGB.mkv
Format                      : Matroska
Format version              : Version 4
File size                   : 5.93 GiB
Duration                    : 1 h 53 min
Overall bit rate            : 7 462 kb/s
Frame rate                  : 23.976 FPS
Movie name                  : RGB
Encoded date                : 2024-06-27 18:05:10 UTC
Writing application         : mkvmerge v82.0 ('I'm The President') 64-bit
Writing library             : libebml v1.4.5 + libmatroska v1.7.1

Video
ID                          : 1
Format                      : AVC
Format/Info                 : Advanced Video Codec
Format profile              : High@L4
Format settings             : CABAC / 5 Ref Frames
Format settings, CABAC      : Yes
Format settings, Reference  : 5 frames
Format settings, Slice coun : 8 slices per frame
Codec ID                    : V_MPEG4/ISO/AVC
Duration                    : 1 h 53 min
Bit rate                    : 6 694 kb/s
Width                       : 1 920 pixels
Height                      : 816 pixels
Display aspect ratio        : 2.35:1
Frame rate mode             : Constant
Frame rate                  : 23.976 (24000/1001) FPS
Color space                 : YUV
Chroma subsampling          : 4:2:0
Bit depth                   : 8 bits
Scan type                   : Progressive
Bits/(Pixel*Frame)          : 0.178
Stream size                 : 5.32 GiB (90%)
Title                       : RGB
Language                    : English
Default                     : Yes
Forced                      : No
Color range                 : Limited
Color primaries             : BT.709
Transfer characteristics    : BT.709
Matrix coefficients         : BT.709

Audio #1
ID                          : 2
Format                      : AC-3
Format/Info                 : Audio Coding 3
Commercial name             : Dolby Digital
Codec ID                    : A_AC3
Duration                    : 1 h 53 min
Bit rate mode               : Constant
Bit rate                    : 384 kb/s
Channel(s)                  : 6 channels
Channel layout              : L R C LFE Ls Rs
Sampling rate               : 48.0 kHz
Frame rate                  : 31.250 FPS (1536 SPF)
Compression mode            : Lossy
Stream size                 : 312 MiB (5%)
Title                       : MVO 
Language                    : Russian
Service kind                : Complete Main
Default                     : Yes
Forced                      : No
Dialog Normalization        : -27 dB
compr                       : -0.28 dB
cmixlev                     : -3.0 dB
surmixlev                   : -3 dB
mixlevel                    : 285 dB
roomtyp                     : 3
ltrtcmixlev                 : -3.0 dB
ltrtsurmixlev               : -3.0 dB
lorocmixlev                 : -3.0 dB
lorosurmixlev               : -3.0 dB
dialnorm_Average            : -27 dB
dialnorm_Minimum            : -27 dB
dialnorm_Maximum            : -27 dB

Audio #2
ID                          : 3
Format                      : AC-3
Format/Info                 : Audio Coding 3
Commercial name             : Dolby Digital
Codec ID                    : A_AC3
Duration                    : 1 h 53 min
Bit rate mode               : Constant
Bit rate                    : 384 kb/s
Channel(s)                  : 6 channels
Channel layout              : L R C LFE Ls Rs
Sampling rate               : 48.0 kHz
Frame rate                  : 31.250 FPS (1536 SPF)
Compression mode            : Lossy
Stream size                 : 312 MiB (5%)
Title                       : Original
Language                    : English
Service kind                : Complete Main
Default                     : No
Forced                      : No
Dialog Normalization        : -27 dB
compr                       : -0.28 dB
cmixlev                     : -3.0 dB
surmixlev                   : -3 dB
ltrtcmixlev                 : -3.0 dB
ltrtsurmixlev               : -3.0 dB
lorocmixlev                 : -3.0 dB
lorosurmixlev               : -3.0 dB
dialnorm_Average            : -27 dB
dialnorm_Minimum            : -27 dB
dialnorm_Maximum            : -27 dB
Релиз от: RGB

Всего файлов в раздаче: 1 
Ride.2024.1080p.WEB.MVO-RGB.mkv5.93 GB

Похожие раздачи по запросу - Заезд
2024-06-29 magnet Заезд / Ride (2024) WEB-DLRip-AVC | L 1.61 GB ↑ 11 ↓ 0
2024-06-29 magnet Заезд / Ride (2024) WEB-DLRip-AVC | L 2.17 GB ↑ 6 ↓ 1

Комментарии


Зарегистрируйтесь чтобы добавить комментарий
Торрент клиент
byTorrent - программа для загрузки торрент-файлов.

Скачать byTorrent.exe (1,5 МБ)

Скачать byTorrent.zip (0,6 МБ)

Поддержи torrent.by
российских рублей
(300 российских рублей это 4$)

Обратная связь rss

End game ©