↑↓torrent.by
Поиск
Логин:  Регистрация
Пароль:

Каштан / Chestnut (2023) WEB-DLRip-AVC | L

download Скачать торрент-файл   magnet Магнитная ссылка Размер: 2.04 GB Раздают: 2 Качают: 1 Добавлен: il68k 2024-06-29 10:14
Пиры будут получены из сети DHT
Последний сидер был замечен сегодня в 22:21
Информация о фильме Название: Каштан Оригинальное название: Chestnut Год выхода: 2023 Жанр: драма Режиссер: Жаклин Крон В ролях: Наталия Дайер, Рэйчел Келлер, Дэнни Рамирес, Челла Мань, Калеб Эберхардт, Эштон Джон, Джон Джезиор, Скотт Джонсон О фильме: После окончания колледжа Энни — единственная из своих подруг остается на лето в маленьком студенческом городке в Филадельфии. Энни оказывается втянутой в отношения с Тайлер, которую она встречает однажды вечером в баре, а также с Дэнни, коллегой Тайлер… или лучшим другом… или кем-то еще? Страна: США Студия: Neon Heart Productions, The Space Program, Utopia Продолжительность: 01:27:40 Перевод: Любительский (многоголосый закадровый) | RGB Файл Кодек: Н.264 Качество: WEB-DLRip-AVC Видео: MPEG-4 AVC, 2447 kbps, 1024x576 (16:9), 23.976 fps, 0.173 bit/pixel, High@L4.1 Звук 1: 48 kHz, AC3 Dolby Digital, 3/2 (L, C, R, l, r) + LFE ch, ~448 kbps | RGB Звук 2: 48 kHz, AC3 Dolby Digital, 3/2 (L, C, R, l, r) + LFE ch, ~448 kbps | Английский Субтитры: английские (full, SDH), немецкие Семпл
[+] Скриншоты
[+] MediaInfo raw : 1024x576p 1:1 @ 24000/1001 fps (cfr) x264 : using SAR=1/1 x264 : using cpu capabilities: MMX2 SSE2Fast SSSE3 SSE4.2 AVX FMA3 BMI2 AVX2 x264 : profile High, level 4.1, 4:2:0, 8-bit x264 : frame I:617 Avg QP:13.01 size: 67569 x264 : frame P:24459 Avg QP:15.77 size: 28650 x264 : frame B:101049 Avg QP:17.61 size: 8488 x264 : consecutive B-frames: 0.9% 1.4% 5.9% 15.2% 14.5% 45.7% 7.2% 4.2% 1.7% 0.6% 1.0% 0.9% 0.9% x264 : mb I I16..4: 10.0% 82.3% 7.7% x264 : mb P I16..4: 0.9% 12.5% 0.6% P16..4: 36.5% 30.1% 14.8% 0.0% 0.0% skip: 4.6% x264 : mb B I16..4: 0.0% 0.4% 0.0% B16..8: 44.7% 15.1% 3.4% direct: 4.6% skip:31.7% L0:46.8% L1:46.8% BI: 6.4% x264 : 8x8 transform intra:88.4% inter:62.3% x264 : direct mvs spatial:99.3% temporal:0.7% x264 : coded y, uvDC, uvAC intra: 92.6% 90.5% 78.2% inter: 24.8% 25.4% 11.4% x264 : i16 v, h, dc, p: 25% 9% 15% 51% x264 : i8 v, h, dc, ddl, ddr, vr, hd, vl, hu: 8% 7% 11% 10% 14% 13% 12% 12% 12% x264 : i4 v, h, dc, ddl, ddr, vr, hd, vl, hu: 7% 6% 3% 11% 17% 16% 14% 12% 13% x264 : i8c dc, h, v, p: 51% 17% 16% 16% x264 : Weighted P-Frames: Y:2.0% UV:0.9% x264 : ref P L0: 42.3% 5.9% 19.3% 6.8% 6.6% 3.8% 4.2% 2.2% 2.4% 1.6% 1.9% 1.3% 1.7% 0.0% 0.0% x264 : ref B L0: 68.1% 13.3% 6.1% 3.4% 2.3% 1.9% 1.4% 1.2% 0.8% 0.8% 0.5% 0.3% x264 : ref B L1: 93.8% 6.2% x264 : kb/s:2433.51 x264 : encoded 126125 frames, 8.79 fps, 2433.51 kb/s ================================================================ General Unique ID: 297615175606800095035400110562358362117 (0xDFE6990D6315CD739C19C9E9544C8005) Complete name: D:\Kashtan.2023.AMZN.WEB-DLRip.AVC.mkv Format: Matroska Format version: Version 4 File size: 2.04 GiB Duration: 1 h 27 min Overall bit rate: 3 331 kb/s Frame rate: 23.976 FPS Movie name: Chestnut (2023) WEB-DLRip-AVC _ vitolinform Encoded date: 2024-06-28 21:26:52 UTC Writing application: mkvmerge v85.0 ('Shame For You') 64-bit Writing library: libebml v1.4.5 + libmatroska v1.7.1 Attachments: poster_ger.jpg / poster_eng.jpg / poster.jpg / log.log Video ID: 1 Format: AVC Format/Info: Advanced Video Codec Format profile: High@L4.1 Format settings: CABAC / 13 Ref Frames Format settings, CABAC: Yes Format settings, Reference frames: 13 frames Codec ID: V_MPEG4/ISO/AVC Duration: 1 h 27 min Bit rate: 2 447 kb/s Width: 1 024 pixels Height: 576 pixels Display aspect ratio: 16:9 Frame rate mode: Constant Frame rate: 23.976 (24000/1001) FPS Color space: YUV Chroma subsampling: 4:2:0 Bit depth: 8 bits Scan type: Progressive Bits/(Pixel*Frame): 0.173 Stream size: 1.49 GiB (73%) Title: Каштан / Chestnut (2023) Writing library: x264 core 164 r3182 be4f020 Encoding settings: cabac=1 / ref=13 / deblock=1:-3:-3 / analyse=0x3:0x113 / me=umh / subme=10 / psy=1 / psy_rd=1.00:0.05 / mixed_ref=1 / me_range=32 / chroma_me=1 / trellis=2 / 8x8dct=1 / cqm=0 / deadzone=21, 11 / fast_pskip=0 / chroma_qp_offset=-3 / threads=12 / lookahead_threads=3 / sliced_threads=0 / nr=0 / decimate=0 / interlaced=0 / bluray_compat=0 / constrained_intra=0 / bframes=12 / b_pyramid=2 / b_adapt=2 / b_bias=0 / direct=3 / weightb=1 / open_gop=0 / weightp=2 / keyint=240 / keyint_min=24 / scenecut=40 / intra_refresh=0 / rc_lookahead=60 / rc=2pass / mbtree=0 / bitrate=2447 / ratetol=1.0 / qcomp=0.60 / qpmin=0 / qpmax=69 / qpstep=4 / cplxblur=20.0 / qblur=0.5 / vbv_maxrate=50000 / vbv_bufsize=62500 / nal_hrd=none / filler=0 / ip_ratio=1.40 / pb_ratio=1.30 / aq=1:1.00 Language: English Default: Yes Forced: No Color range: Limited Color primaries: BT.709 Transfer characteristics: BT.709 Matrix coefficients: BT.709 Audio #1 ID: 2 Format: AC-3 Format/Info: Audio Coding 3 Commercial name: Dolby Digital Codec ID: A_AC3 Duration: 1 h 27 min Bit rate mode: Constant Bit rate: 448 kb/s Channel(s): 6 channels Channel layout: L R C LFE Ls Rs Sampling rate: 48.0 kHz Frame rate: 31.250 FPS (1536 SPF) Compression mode: Lossy Stream size: 281 MiB (13%) Title: MVO | RGB Language: Russian Service kind: Complete Main Default: Yes Forced: No Audio #2 ID: 3 Format: AC-3 Format/Info: Audio Coding 3 Commercial name: Dolby Digital Codec ID: A_AC3 Duration: 1 h 27 min Bit rate mode: Constant Bit rate: 448 kb/s Channel(s): 6 channels Channel layout: L R C LFE Ls Rs Sampling rate: 48.0 kHz Frame rate: 31.250 FPS (1536 SPF) Compression mode: Lossy Stream size: 280 MiB (13%) Title: English Language: English Service kind: Complete Main Default: No Forced: No Text #1 ID: 4 Format: UTF-8 Codec ID: S_TEXT/UTF8 Codec ID/Info: UTF-8 Plain Text Duration: 1 h 19 min Bit rate: 49 b/s Frame rate: 0.224 FPS Count of elements: 1063 Stream size: 28.8 KiB (0%) Title: Full Language: English Default: No Forced: No Text #2 ID: 5 Format: UTF-8 Codec ID: S_TEXT/UTF8 Codec ID/Info: UTF-8 Plain Text Duration: 1 h 25 min Bit rate: 58 b/s Frame rate: 0.255 FPS Count of elements: 1313 Stream size: 36.5 KiB (0%) Title: SDH Language: English Default: No Forced: No Text #3 ID: 6 Format: UTF-8 Codec ID: S_TEXT/UTF8 Codec ID/Info: UTF-8 Plain Text Duration: 1 h 21 min Bit rate: 52 b/s Frame rate: 0.151 FPS Count of elements: 742 Stream size: 31.2 KiB (0%) Title: Full Language: German Default: No Forced: No Menu 00:00:00.000: en:Scene 01 01:27:19.000: en:End Credits
Rip by vitolinform

Всего файлов в раздаче: 1 
Kashtan.2023.AMZN.WEB-DLRip.AVC.mkv2.04 GB

Комментарии


Зарегистрируйтесь чтобы добавить комментарий
Торрент клиент
byTorrent - программа для загрузки торрент-файлов.

Скачать byTorrent.exe (1,5 МБ)

Скачать byTorrent.zip (0,6 МБ)

Поддержи torrent.by
российских рублей
(300 российских рублей это 4$)

Обратная связь rss

End game ©