↑↓torrent.by
Поиск
Логин:  Регистрация
Пароль:

Гваделупа: от вершин до океана / Guadeloupe, from Summits to Ocean (2019) HDTV 1080i | P1

download Скачать торрент-файл   magnet Магнитная ссылка Размер: 3.05 GB Добавлен: 2024-06-29 11:00
Пиры будут получены из сети DHT
Последний сидер был замечен 2024-06-30 08:13
Информация о фильме Название: Гваделупа: от вершин до океана Оригинальное название: Guadeloupe, from Summits to Ocean Год выхода: 2019 Жанр: Документальный, природа, флора, фауна Режиссер: Реми Ложье О фильме: Посреди кристально чистых вод Карибского моря расположена земля: Гваделупа. От вершин острова до пышных лесов, рек, болот, пляжей и мангровых зарослей, разнообразие ландшафтов и экосистем предлагает широкий выбор захватывающих панорам. Несмотря на то, что остров Гваделупа очень посещаем туристами и на нем много населенных пунктов, он также является страной сдержанных, почти невидимых людей: животных. Страна: Франция Студия: Cosmopolitis Productions, France Televisions Продолжительность: 00:51:56 Перевод: Профессиональный (одноголосый закадровый) Файл Кодек: AVC/H.264 Качество: HDTV 1080i Видео: 1920x1080 (16:9), 25 fps, AVC (H.264), High@L4, 7604 kbps, 0.147 bit/pixel Звук: Русский 48 kHz, MPEG Layer 2, 2 ch, 192 kbps Английский 48 kHz, MPEG Layer 2, 2 ch, 192 kbps Семпл
[+] MediaInfoComplete name : F:НаладкиГваделупа_от вершин до океана.ts Format : MPEG-TS File size : 3.05 GiB Duration : 51 min 57 s Overall bit rate mode : Variable Overall bit rate : 8 408 kb/s Frame rate : 25.000 FPS Video ID : 305 (0x131) Menu ID : 17105 (0x42D1) Format : AVC Format/Info : Advanced Video Codec Format profile : High@L4 Format settings : CABAC / 4 Ref Frames Format settings, CABAC : Yes Format settings, Reference : 4 frames Format settings, GOP : M=4, N=28 Codec ID : 27 Duration : 51 min 56 s Bit rate : 7 604 kb/s Width : 1 920 pixels Height : 1 080 pixels Display aspect ratio : 16:9 Active Format Deion : Letterbox 16:9 image Frame rate : 25.000 FPS Standard : Component Color space : YUV Chroma subsampling : 4:2:0 Bit depth : 8 bits Scan type : Interlaced Scan type, store method : Separated fields Scan order : Top Field First Bits/(Pixel*Frame) : 0.147 Stream size : 2.76 GiB (90%) Color range : Limited Color primaries : BT.709 Transfer characteristics : BT.709 Matrix coefficients : BT.709 Audio #1 ID : 405 (0x195) Menu ID : 17105 (0x42D1) Format : MPEG Audio Format version : Version 1 Format profile : Layer 2 Codec ID : 3 Duration : 51 min 56 s Bit rate mode : Constant Bit rate : 192 kb/s Channel(s) : 2 channels Sampling rate : 48.0 kHz Frame rate : 41.667 FPS (1152 SPF) Compression mode : Lossy Delay relative to video : -120 ms Stream size : 71.3 MiB (2%) Language : Russian Audio #2 ID : 425 (0x1A9) Menu ID : 17105 (0x42D1) Format : MPEG Audio Format version : Version 1 Format profile : Layer 2 Codec ID : 3 Duration : 51 min 56 s Bit rate mode : Constant Bit rate : 192 kb/s Channel(s) : 2 channels Sampling rate : 48.0 kHz Frame rate : 41.667 FPS (1152 SPF) Compression mode : Lossy Delay relative to video : -120 ms Stream size : 71.3 MiB (2%) Language : English Text ID : 505 (0x1F9)-888 Menu ID : 17105 (0x42D1) Format : Teletext Subtitle Language : Russian Other ID : 505 (0x1F9)-100 Menu ID : 17105 (0x42D1) Format : Teletext Language : Russian
[+] Скриншоты
Релиз от: kyba

Всего файлов в раздаче: 1 
Гваделупа_от вершин до океана.ts3.05 GB

Комментарии


Зарегистрируйтесь чтобы добавить комментарий
Торрент клиент
byTorrent - программа для загрузки торрент-файлов.

Скачать byTorrent.exe (1,5 МБ)

Скачать byTorrent.zip (0,6 МБ)

Поддержи torrent.by
российских рублей
(300 российских рублей это 4$)

Обратная связь rss

End game ©