↑↓torrent.by
Поиск
Логин:  Регистрация
Пароль:

Imagine Dragons - Loom [24Bit Hi-Res] (2024) FLAC

download Скачать торрент-файл   magnet Магнитная ссылка Размер: 416.58 MB Добавлен: 2024-06-29 11:00
Пиры будут получены из сети DHT
Последний сидер был замечен 2024-07-11 17:22
Название: Loom Исполнитель: Imagine Dragons Год: 2024 Жанр: Pop-Rock, Indie-Rock, Alternative-Rock Страна: USA Продолжительность: 00:31:32 Формат/Кодек: FLAC Битрейт аудио: Lossless Разрядность: 24 Bit/48 kHz Носитель: WEB HDTracks Примечание: Без водяных знаков. Водяной знак для аудио - особым образом закодированный или модулированный отрывок звуковой дорожки, отдельный звуковой сигнал, создаваемый для разнонаправленного ограничения прав доступа или подтверждения авторства на акустическую информацию. Водяные знаки для аудио используются повсеместно: в кодировании-декодировании акустической информации, в уникализации и индивидуализации звуковых треков, в технологиях поиска и определения незаконных копий аудиоматериалов.
[+] Трек-лист 01. Wake Up (2:47) 02. Nice to Meet You (3:11) 03. Eyes Closed (3:20) 04. Take Me to the Beach (2:47) 05. In Your Corner (4:00) 06. Gods Don’t Pray (2:50) 07. Don’t Forget Me (2:58) 08. Kid (2:40) 09. Fire in These Hills (3:39) 10. Eyes Closed (3:20)
[+] DRM -------------------------------------------------------------------------------- Analyzed: Imagine Dragons, J Balvin / LOOM (1) Imagine Dragons / LOOM (2-10) -------------------------------------------------------------------------------- DR Peak RMS Duration Track -------------------------------------------------------------------------------- DR5 0.00 dB -7.58 dB 3:20 10-Eyes Closed DR6 -0.10 dB -7.15 dB 2:47 01-Wake Up DR4 -0.10 dB -6.87 dB 3:11 02-Nice to Meet You DR5 0.00 dB -7.65 dB 3:20 03-Eyes Closed DR6 -0.10 dB -7.47 dB 2:47 04-Take Me to the Beach DR6 -0.10 dB -7.27 dB 4:00 05-In Your Corner DR6 -0.08 dB -7.86 dB 2:50 06-Gods Don’t Pray DR5 -0.08 dB -7.90 dB 2:58 07-Don’t Forget Me DR6 -0.08 dB -7.20 dB 2:40 08-Kid DR6 -0.08 dB -8.80 dB 3:39 09-Fire in These Hills -------------------------------------------------------------------------------- Number of tracks: 10 Official DR value: DR5 Samplerate: 48000 Hz Channels: 2 Bits per sample: 24 Bitrate: 1700 kbps Codec: FLAC ================================================================================

Всего файлов в раздаче: 11 
01 Wake Up.flac38.28 MB
02 Nice to Meet You.flac42.46 MB
03 Eyes Closed.flac42.60 MB
04 Take Me to the Beach.flac37.81 MB
05 In Your Corner.flac51.78 MB
06 Gods Don’t Pray.flac37.22 MB
07 Don’t Forget Me.flac38.78 MB
08 Kid.flac37.42 MB
09 Fire in These Hills.flac46.66 MB
10 Eyes Closed.flac43.25 MB
Показать все файлы

Похожие раздачи по запросу - Imagine
2024-06-29 magnet Imagine Dragons - Loom (2024) MP3 72.31 MB ↑ 0 ↓ 0
2024-06-28 magnet Imagine Dragons - Loom [24Bit, Hi-Res] (2024) FLAC 398.60 MB ↑ 0 ↓ 0
2024-05-22 magnet Imagine 1.5.3 + Plugins (2024) PC | + Portable 16.00 MB ↑ 0 ↓ 0

Комментарии


Зарегистрируйтесь чтобы добавить комментарий
Торрент клиент
byTorrent - программа для загрузки торрент-файлов.

Скачать byTorrent.exe (1,5 МБ)

Скачать byTorrent.zip (0,6 МБ)

Поддержи torrent.by
российских рублей
(300 российских рублей это 4$)

Обратная связь rss

End game ©