↑↓torrent.by
Поиск
Логин:  Регистрация
Пароль:

Аколит / The Acolyte [01x01-05 из 08] (2024) WEB-DL 1080p от Jaskier | P

download Скачать торрент-файл   magnet Магнитная ссылка Размер: 8.65 GB Добавлен: 2024-06-29 11:00
Пиры будут получены из сети DHT
Последний сидер был замечен 2024-06-29 15:16
Информация о фильме Название: Аколит Оригинальное название: The Acolyte Год выхода: 2024 Жанр: фантастика, боевик, драма, детектив, фэнтези Режиссер: Ханель М. Кулпеппер, Алекс Гарсия Лопес, Лесли Хэдланд В ролях: Амандла Стенберг, Дафни Кин, Джоди Тёрнер-Смит, Ли Джон-джэ, Чарли Барнетт, Ребекка Хендерсон, Леа Брэйди, Йонас Суотамо, Эми Цан, Мэнни Хасинто О фильме: Девушка и её учитель-джедай начинают расследовать серию преступлений и сталкиваются со зловещими силами. Страна: США Студия: Lucasfilm, Disney+, The Walt Disney Company Продолжительность: ~00:40:00 Перевод: Профессиональный (многоголосый закадровый) Jaskier Файл Кодек: MKV Качество: WEB-DL 1080p Видео: AVC, 1920x1080 (16:9), 24.000 fps, ~5471 kbps Звук: Аудио 1: Русский, AC-3, 48 kHz, 6 ch, 384 kbps | Jaskier Аудио 2: Английский, E-AC-3 JOC, 48 kHz, 6 ch, 768 kbps Субтитры: Русские (Forced - Jaskier), Английские (Full, SDH) Семпл Выражаем благодарность за информационную поддержку Гильдии Архивистов
[+] MediaInfo General Unique ID : 196005065467574278001821792978158862067 (0x937533D5F664620FAAB167C5ED35BEF3) Complete name : E:TorrentThe.Acolyte.S01.1080p.DSNP.WEB-DL.DDP5.1.Atmos.H.264-JaskierThe.Acolyte.S01E02.Revenge.Justice.1080p.DSNP.WEB-DL.DDP5.1.Atmos.H.264-Jaskier.mkv Format : Matroska Format version : Version 4 File size : 1.72 GiB Duration : 36 min 30 s Overall bit rate mode : Variable Overall bit rate : 6 758 kb/s Frame rate : 24.000 FPS Encoded date : 2024-06-07 00:24:30 UTC Writing application : mkvmerge v6.6.0 ('The Edge Of The In Between') built on Dec 1 2013 17:55:00 Writing library : libebml v1.3.0 + libmatroska v1.4.1 Video ID : 1 Format : AVC Format/Info : Advanced Video Codec Format profile : High@L4 Format settings : CABAC / 4 Ref Frames Format settings, CABAC : Yes Format settings, Reference frames : 4 frames Codec ID : V_MPEG4/ISO/AVC Duration : 36 min 30 s Bit rate mode : Variable Bit rate : 5 471 kb/s Maximum bit rate : 12.7 Mb/s Width : 1 920 pixels Height : 1 080 pixels Display aspect ratio : 16:9 Frame rate mode : Constant Frame rate : 24.000 FPS Color space : YUV Chroma subsampling : 4:2:0 Bit depth : 8 bits Scan type : Progressive Bits/(Pixel*Frame) : 0.110 Time code of first frame : 00:00:00;00 Stream size : 1.39 GiB (81%) Language : English Default : Yes Forced : No Color range : Limited Color primaries : BT.709 Transfer characteristics : BT.709 Matrix coefficients : BT.709 Audio #1 ID : 2 Format : AC-3 Format/Info : Audio Coding 3 Commercial name : Dolby Digital Codec ID : A_AC3 Duration : 36 min 30 s Bit rate mode : Constant Bit rate : 384 kb/s Channel(s) : 6 channels Channel layout : L R C LFE Ls Rs Sampling rate : 48.0 kHz Frame rate : 31.250 FPS (1536 SPF) Compression mode : Lossy Stream size : 100 MiB (6%) Title : Jaskier Language : Russian Service kind : Complete Main Default : Yes Forced : No Dialog Normalization : -31 dB cmixlev : -4.5 dB surmixlev : -6 dB dialnorm_Average : -31 dB dialnorm_Minimum : -31 dB dialnorm_Maximum : -31 dB Audio #2 ID : 3 Format : E-AC-3 JOC Format/Info : Enhanced AC-3 with Joint Object Coding Commercial name : Dolby Digital Plus with Dolby Atmos Codec ID : A_EAC3 Duration : 36 min 30 s Bit rate mode : Constant Bit rate : 768 kb/s Channel(s) : 6 channels Channel layout : L R C LFE Ls Rs Sampling rate : 48.0 kHz Frame rate : 31.250 FPS (1536 SPF) Compression mode : Lossy Stream size : 201 MiB (11%) Title : Original Language : English Service kind : Complete Main Default : No Forced : No Complexity index : 16 Number of dynamic objects : 15 Bed channel count : 1 channel Bed channel configuration : LFE Dialog Normalization : -27 dB compr : -0.28 dB dmixmod : Lo/Ro ltrtcmixlev : -3.0 dB ltrtsurmixlev : -4.5 dB lorocmixlev : -3.0 dB lorosurmixlev : -4.5 dB dialnorm_Average : -27 dB dialnorm_Minimum : -27 dB dialnorm_Maximum : -27 dB Text #1 ID : 4 Format : UTF-8 Codec ID : S_TEXT/UTF8 Codec ID/Info : UTF-8 Plain Text Title : Forced (Jaskier) Language : Russian Default : Yes Forced : No Text #2 ID : 5 Format : UTF-8 Codec ID : S_TEXT/UTF8 Codec ID/Info : UTF-8 Plain Text Language : English Default : No Forced : No Text #3 ID : 6 Format : UTF-8 Codec ID : S_TEXT/UTF8 Codec ID/Info : UTF-8 Plain Text Title : SDH Language : English Default : No Forced : No
[+] Скриншоты
Релиз от: Jaskier

Всего файлов в раздаче: 5 
The.Acolyte.S01E01.Lost.Found.1080p.DSNP.WEB-DL.DDP5.1.Atmos.H.264-Jaskier.mkv1.96 GB
The.Acolyte.S01E02.Revenge.Justice.1080p.DSNP.WEB-DL.DDP5.1.Atmos.H.264-Jaskier.mkv1.72 GB
The.Acolyte.S01E03.Destiny.1080p.DSNP.WEB-DL.DDP5.1.Atmos.H.264-Jaskier.mkv2.04 GB
The.Acolyte.S01E04.Day.1080p.DSNP.WEB-DL.DDP5.1.H.264-Jaskier.mkv1.56 GB
The.Acolyte.S01E05.Night.1080p.DSNP.WEB-DL.DDP5.1.H.264-Jaskier.mkv1.37 GB

Похожие раздачи по запросу - Аколит
2024-07-19 magnet Аколит / The Acolyte [S01] (2024) WEB-DL 1080p от Jaskier | P 14.31 GB ↑ 0 ↓ 13
2024-07-18 magnet Аколит / The Acolyte [S01] (2024) WEB-DL 1080p от NewComers | P 14.86 GB ↑ 0 ↓ 3
2024-07-18 magnet Аколит / The Acolyte [S01] (2024) WEB-DL-HEVC 2160p от NewComers | 4K | HDR10 | P 35.06 GB ↑ 0 ↓ 1
2024-07-12 magnet Аколит / The Acolyte [01x01-07 из 08] (2024) WEB-DLRip | NewComers 2.17 GB ↑ 0 ↓ 0
2024-07-12 magnet Аколит / The Acolyte [01x01-07 из 08] (2024) WEB-DL 1080p от Jaskier | P 12.14 GB ↑ 0 ↓ 0
2024-07-05 magnet Аколит / The Acolyte [01x01-06 из 08] (2024) WEB-DL 1080p от Jaskier | P 10.27 GB ↑ 0 ↓ 0
2024-07-05 magnet Аколит / The Acolyte [01x01-06 из 08] (2024) WEB-DLRip | NewComers 1.80 GB ↑ 0 ↓ 0

Комментарии


Зарегистрируйтесь чтобы добавить комментарий
Торрент клиент
byTorrent - программа для загрузки торрент-файлов.

Скачать byTorrent.exe (1,5 МБ)

Скачать byTorrent.zip (0,6 МБ)

Поддержи torrent.by
российских рублей
(300 российских рублей это 4$)

Обратная связь rss

End game ©