↑↓torrent.by
Поиск
Логин:  Регистрация
Пароль:

Закусочная кровососов / Truckstop Bloodsuckers (2012) WEB-DLRip | D

download Скачать торрент-файл   magnet Магнитная ссылка Размер: 1.09 GB Добавлен: 2024-06-29 11:00
Пиры будут получены из сети DHT
Последний сидер был замечен 2024-07-06 16:13
Закусочная кровососов Информация о фильме Год релиза: 2012 Выпущено: Канада Жанр: комедия, ужасы Режиссер: Гален Пендлтон В ролях: Эме Бодуан, Джиллин Такер, Райан Паркер, Джесси Липскомб, Рэнди Бросоский, Джефф Халаби, Донован Воркун, Марк Мир, Анжелика Берри, Дэн Брэдфорд, Мэттью Бреннан, Джулиан Домингес, Мэри Луиз Дреченберг, Анджела Палмер О фильме: Вампирский инди-хоррор с чёрным юмором из Канады. Придорожная забегаловка для дальнобойщиков в небольшом провинциальном городке. Хороший кофе, яблочный пирог, фирменные блюда и высокая текучесть персонала, который бесследно исчезает... Продолжительность: 01:09:22 Перевод A: Профессиональный дублированный (судия Plan B) Субтитры: русские Качество видео: WEB-DLRip Формат видео: AVI Видео: XviD, 720x400 (16:9), 25 fps, 1848 kbps, 0.257 bit/pixel Аудио: Русский AC3, 48000 Гц, 2ch, 192 kbps Аудио 2: Английский AC3, 48000 Гц, 2ch, 192 kbps Реклама: Отсутствует
[+] MediaInfo Общее Полное имя : Truckstop.Bloodsuckers.2012.WEBDLRip-ylnian.avi Формат : AVI Формат/Информация : Audio Video Interleave Настройки формата : WaveFormatEx Размер файла : 1,09 Гбайт Продолжительность : 1 ч. 9 мин. Общий битрейт : 2 246 Кбит/сек Частота кадров : 25,000 кадров/сек Программа кодирования : VirtualDubMod 1.5.10.3 | www.virtualdub-fr.org || (build 2550/release) Библиотека кодирования : VirtualDubMod build 2550/release Видео Идентификатор : 0 Формат : MPEG-4 Visual Профиль формата : Advanced Simple@L5 Настройки формата : BVOP1 / Custom Matrix Параметр BVOP формата : 1 Параметр QPel формата : Нет Параметр GMC формата : Без точки перехода Параметр Matrix формата : Выборочная Идентификатор кодека : XVID Идентификатор кодека/Подсказка : XviD Продолжительность : 1 ч. 9 мин. Битрейт : 1 848 Кбит/сек Ширина : 720 пикселей Высота : 400 пикселей Соотношение сторон дисплея : 16:9 Частота кадров : 25,000 кадров/сек Цветовое пространство : YUV Цветовая субдискретизация : 4:2:0 Битовая глубина : 8 бит Тип развёртки : Прогрессивная Метод сжатия : С потерями Бит/(Пиксели*Кадры) : 0.257 Размер потока : 917 Мбайт (82%) Библиотека кодирования : XviD 74 Аудио #1 Идентификатор : 1 Формат : AC-3 Формат/Информация : Audio Coding 3 Коммерческое название : Dolby Digital Настройки формата : Dolby Surround Идентификатор кодека : 2000 Продолжительность : 1 ч. 9 мин. Вид битрейта : Постоянный Битрейт : 192 Кбит/сек Канал(-ы) : 2 канала Расположение каналов : L R Частота дискретизации : 48,0 КГц Частота кадров : 31,250 кадров/сек (1536 SPF) Метод сжатия : С потерями Размер потока : 95,3 Мбайт (9%) Выравнивание : Разделение по промежуткам Чередование, продолжительность : 40 мс. (1,00 видеокадр) Чередование, продолжительность пред.загр : 500 мс. Заголовок : RUS Вид сервиса : Complete Main Нормализация звука речи : -27 dB compr : -0.28 dB dsurmod : Dolby Surround encoded dialnorm_Average : -27 dB dialnorm_Minimum : -27 dB dialnorm_Maximum : -27 dB Аудио #2 Идентификатор : 2 Формат : AC-3 Формат/Информация : Audio Coding 3 Коммерческое название : Dolby Digital Настройки формата : Dolby Surround Идентификатор кодека : 2000 Продолжительность : 1 ч. 9 мин. Вид битрейта : Постоянный Битрейт : 192 Кбит/сек Канал(-ы) : 2 канала Расположение каналов : L R Частота дискретизации : 48,0 КГц Частота кадров : 31,250 кадров/сек (1536 SPF) Метод сжатия : С потерями Размер потока : 95,3 Мбайт (9%) Выравнивание : Разделение по промежуткам Чередование, продолжительность : 40 мс. (1,00 видеокадр) Чередование, продолжительность пред.загр : 500 мс. Заголовок : ENG Вид сервиса : Complete Main Нормализация звука речи : -27 dB compr : -0.28 dB dsurmod : Dolby Surround encoded dialnorm_Average : -27 dB dialnorm_Minimum : -27 dB dialnorm_Maximum : -27 dB
[+] Скриншоты

Всего файлов в раздаче: 1 
Truckstop.Bloodsuckers.2012.WEBDLRip-ylnian.avi1.09 GB

Похожие раздачи по запросу - Закусочная
2023-11-23 magnet Закусочная на колесах / Kuai can che (1984) HDRip-AVC | P 2.17 GB ↑ 2 ↓ 1

Комментарии


Зарегистрируйтесь чтобы добавить комментарий
Торрент клиент
byTorrent - программа для загрузки торрент-файлов.

Скачать byTorrent.exe (1,5 МБ)

Скачать byTorrent.zip (0,6 МБ)

Поддержи torrent.by
российских рублей
(300 российских рублей это 4$)

Обратная связь rss

End game ©