↑↓torrent.by
Поиск
Логин:  Регистрация
Пароль:

Молодая жена / The Young Wife (2023) WEB-DL 1080p | L

download Скачать торрент-файл   magnet Магнитная ссылка Размер: 7.35 GB Добавлен: il68k 2024-06-29 13:29
Пиры будут получены из сети DHT
Последний сидер был замечен сегодня в 09:03
Информация о фильме Название: Молодая жена Оригинальное название: The Young Wife Год выпуска: 2023 Жанр: драма, комедия Режиссер: Таяриша По В ролях: Лион Бриджес, Айя Кэш, Кирси Клемонс, Брэндон Майкл Холл, Сэнди Хониг, Джудит Лайт, Лукита Максвелл, A. Джа Мишель, Аида Осман О фильме: Селестина приглашает друзей на вечеринку, посвященную ее роману с Ривером. Селестина изо всех сил пытается убедить растерянных гостей, что это не свадьба. При этом она хочет пойти по стопам своих родителей, которые живут в гражданском браке и ведут счастливую совместную жизнь. Коллега Дэйв тоже присутствует на вечеринке. Он шантажирует Селестину, заставляя ее вернуться на работу в инвестиционную компанию, из которой только что ушла героиня... Страна: США Студия: Archer Gray Productions, FilmNation Entertainment Продолжительность: 01:38:11 Перевод: Любительский (многоголосый закадровый) | RGB Файл Формат: MKV Качество: WEB-DL 1080p Видео: AVC/H.264, 1914x800, 23.976 fps, ~9945 Kbps Аудио 1: 48 kHz, AC3, 6 ch, ~384 kbps | RGB Аудио 2: 48 kHz, AC3, 6 ch, ~384 kbps | Английский Субтитры: отсутствуют Семпл
[+] Скриншоты
[+] MediaInfo General Unique ID : 113064996144255674071746927365759505022 (0x550F86B3508F1EE58C97AC29C219127E) Complete name : E:\RGB\The.Young.Wife.2024.1080p.WEB.MVO-RGB.mkv Format : Matroska Format version : Version 4 File size : 7.35 GiB Duration : 1 h 38 min Overall bit rate : 10.7 Mb/s Frame rate : 23.976 FPS Movie name : RGB Encoded date : 2024-06-29 07:12:07 UTC Writing application : mkvmerge v82.0 ('I'm The President') 64-bit Writing library : libebml v1.4.5 + libmatroska v1.7.1 Video ID : 1 Format : AVC Format/Info : Advanced Video Codec Format profile : High@L4 Format settings : CABAC / 5 Ref Frames Format settings, CABAC : Yes Format settings, Reference : 5 frames Format settings, Slice coun : 8 slices per frame Codec ID : V_MPEG4/ISO/AVC Duration : 1 h 38 min Bit rate : 9 945 kb/s Width : 1 914 pixels Height : 800 pixels Display aspect ratio : 2.39:1 Original display aspect rat : 2.39:1 Frame rate mode : Constant Frame rate : 23.976 (24000/1001) FPS Color space : YUV Chroma subsampling : 4:2:0 Bit depth : 8 bits Scan type : Progressive Bits/(Pixel*Frame) : 0.271 Stream size : 6.82 GiB (93%) Title : RGB Language : English Default : Yes Forced : No Color range : Limited Color primaries : BT.709 Transfer characteristics : BT.709 Matrix coefficients : BT.709 Audio #1 ID : 2 Format : AC-3 Format/Info : Audio Coding 3 Commercial name : Dolby Digital Codec ID : A_AC3 Duration : 1 h 38 min Bit rate mode : Constant Bit rate : 384 kb/s Channel(s) : 6 channels Channel layout : L R C LFE Ls Rs Sampling rate : 48.0 kHz Frame rate : 31.250 FPS (1536 SPF) Compression mode : Lossy Stream size : 270 MiB (4%) Title : MVO Language : Russian Service kind : Complete Main Default : Yes Forced : No Dialog Normalization : -27 dB compr : -0.28 dB cmixlev : -3.0 dB surmixlev : -3 dB mixlevel : 285 dB roomtyp : 3 ltrtcmixlev : -3.0 dB ltrtsurmixlev : -3.0 dB lorocmixlev : -3.0 dB lorosurmixlev : -3.0 dB dialnorm_Average : -27 dB dialnorm_Minimum : -27 dB dialnorm_Maximum : -27 dB Audio #2 ID : 3 Format : AC-3 Format/Info : Audio Coding 3 Commercial name : Dolby Digital Codec ID : A_AC3 Duration : 1 h 38 min Bit rate mode : Constant Bit rate : 384 kb/s Channel(s) : 6 channels Channel layout : L R C LFE Ls Rs Sampling rate : 48.0 kHz Frame rate : 31.250 FPS (1536 SPF) Compression mode : Lossy Stream size : 270 MiB (4%) Title : Original Language : English Service kind : Complete Main Default : No Forced : No Dialog Normalization : -25 dB compr : -0.28 dB cmixlev : -3.0 dB surmixlev : -3 dB ltrtcmixlev : -3.0 dB ltrtsurmixlev : -3.0 dB lorocmixlev : -3.0 dB lorosurmixlev : -3.0 dB dialnorm_Average : -25 dB dialnorm_Minimum : -25 dB dialnorm_Maximum : -25 dB
Релиз от: RGB

Всего файлов в раздаче: 1 
The.Young.Wife.2024.1080p.WEB.MVO-RGB.mkv7.35 GB

Похожие раздачи по запросу - Молодая жена
2024-06-29 magnet Молодая жена / The Young Wife (2023) WEB-DLRip-AVC | L 1.52 GB ↑ 1 ↓ 0
2024-06-15 magnet Загадки века. Молодая гвардия. Правда и мифы (2024) WEBRip 498.73 MB ↑ 0 ↓ 0
2023-10-08 magnet Жена Чайковского (2022) WEB-DLRip 720p от ExKinoRay 2.29 GB ↑ 1 ↓ 0
2023-09-28 magnet Жена-девственница / La moglie vergine (1975) DVDRip-AVC от ExKinoRay | L1 2.19 GB ↑ 0 ↓ 0
2023-06-09 magnet Жена Чайковского (2022) WEBRip | Режиссерская версия 2.14 GB ↑ 0 ↓ 0

Комментарии


Зарегистрируйтесь чтобы добавить комментарий
Торрент клиент
byTorrent - программа для загрузки торрент-файлов.

Скачать byTorrent.exe (1,5 МБ)

Скачать byTorrent.zip (0,6 МБ)

Поддержи torrent.by
российских рублей
(300 российских рублей это 4$)

Обратная связь rss

End game ©