↑↓torrent.by
Поиск
Логин:  Регистрация
Пароль:

Молодая жена / The Young Wife (2023) WEB-DLRip-AVC | L

download Скачать торрент-файл   magnet Магнитная ссылка Размер: 1.52 GB Добавлен: il68k 2024-06-29 14:05
Пиры будут получены из сети DHT
Последний сидер был замечен сегодня в 21:54
Информация о фильме Название: Молодая жена Оригинальное название: The Young Wife Год выпуска: 2023 Жанр: драма, комедия Режиссер: Таяриша По В ролях: Лион Бриджес, Айя Кэш, Кирси Клемонс, Брэндон Майкл Холл, Сэнди Хониг, Джудит Лайт, Лукита Максвелл, A. Джа Мишель, Аида Осман О фильме: Селестина приглашает друзей на вечеринку, посвященную ее роману с Ривером. Селестина изо всех сил пытается убедить растерянных гостей, что это не свадьба. При этом она хочет пойти по стопам своих родителей, которые живут в гражданском браке и ведут счастливую совместную жизнь. Коллега Дэйв тоже присутствует на вечеринке. Он шантажирует Селестину, заставляя ее вернуться на работу в инвестиционную компанию, из которой только что ушла героиня... Страна: США Студия: Archer Gray Productions, FilmNation Entertainment Продолжительность: 01:38:11 Перевод: Любительский (многоголосый закадровый) | RGB Файл Формат: MKV Качество: WEB-DLRip-AVC Видео: AVC/H.264, 720x300, 23.976 fps, ~1834 Kbps Аудио: 48 kHz, AC3, 6 ch, ~384 kbps | RGB Субтитры: отсутствуют Семпл
[+] Скриншоты
[+] MediaInfo General Unique ID : 80945676479067023188851268666440588372 (0x3CE591F9EFA1DD5BF65BB0AFB06C9C54) Complete name : E:\RGB\The.Young.Wife.2024.WEB.MVO-RGB.mkv Format : Matroska Format version : Version 4 File size : 1.52 GiB Duration : 1 h 38 min Overall bit rate : 2 220 kb/s Frame rate : 23.976 FPS Movie name : RGB Encoded date : 2024-06-29 07:49:11 UTC Writing application : mkvmerge v82.0 ('I'm The President') 64-bit Writing library : libebml v1.4.5 + libmatroska v1.7.1 Video ID : 1 Format : AVC Format/Info : Advanced Video Codec Format profile : High@L4.1 Format settings : CABAC / 10 Ref Frames Format settings, CABAC : Yes Format settings, Reference : 10 frames Codec ID : V_MPEG4/ISO/AVC Duration : 1 h 38 min Bit rate : 1 834 kb/s Width : 720 pixels Height : 300 pixels Display aspect ratio : 2.40:1 Frame rate mode : Constant Frame rate : 23.976 (24000/1001) FPS Color space : YUV Chroma subsampling : 4:2:0 Bit depth : 8 bits Scan type : Progressive Bits/(Pixel*Frame) : 0.354 Stream size : 1.26 GiB (83%) Title : RGB Language : English Default : Yes Forced : No Audio ID : 2 Format : AC-3 Format/Info : Audio Coding 3 Commercial name : Dolby Digital Codec ID : A_AC3 Duration : 1 h 38 min Bit rate mode : Constant Bit rate : 384 kb/s Channel(s) : 6 channels Channel layout : L R C LFE Ls Rs Sampling rate : 48.0 kHz Frame rate : 31.250 FPS (1536 SPF) Compression mode : Lossy Stream size : 270 MiB (17%) Title : MVO Language : Russian Service kind : Complete Main Default : Yes Forced : No Dialog Normalization : -27 dB compr : -0.28 dB cmixlev : -3.0 dB surmixlev : -3 dB mixlevel : 285 dB roomtyp : 3 ltrtcmixlev : -3.0 dB ltrtsurmixlev : -3.0 dB lorocmixlev : -3.0 dB lorosurmixlev : -3.0 dB dialnorm_Average : -27 dB dialnorm_Minimum : -27 dB dialnorm_Maximum : -27 dB
Релиз от: RGB

Всего файлов в раздаче: 1 
The.Young.Wife.2024.WEB.MVO-RGB.mkv1.52 GB

Похожие раздачи по запросу - Молодая жена
Сегодня magnet Русская жена [01-04 из 16] (2022) WEBRip 2.73 GB ↑ 0 ↓ 0
Сегодня magnet Русская жена [01-04 из 16] (2022) WEBRip от Files-x 2.52 GB ↑ 0 ↓ 0
Вчера magnet Русская жена [01-04 из 16] (2022) WEBRip 720p от Files-x 2.82 GB ↑ 0 ↓ 0
Вчера magnet Русская жена [01-04 из 16] (2022) WEBRip 1080p от Files-x 7.30 GB ↑ 0 ↓ 0
Вчера magnet Русская жена / Серии: 1-4 из 16 [2022, триллер, драма, WEBRip-AVC] от Aleksan55 1К2.58 GB ↑ 0 ↓ 0
Вчера magnet Русская жена [01-02 из 16] (2022) WEBRip 720p от Files-x 1.52 GB ↑ 0 ↓ 0
Вчера magnet Русская жена [01-03 из 16] (2022) WEBRip 2.05 GB ↑ 0 ↓ 0

Комментарии


Зарегистрируйтесь чтобы добавить комментарий
Торрент клиент
byTorrent - программа для загрузки торрент-файлов.

Скачать byTorrent.exe (1,5 МБ)

Скачать byTorrent.zip (0,6 МБ)

Поддержи torrent.by
российских рублей
(300 российских рублей это 4$)

Обратная связь rss

End game ©