↑↓torrent.by
Поиск
Логин:  Регистрация
Пароль:

Папа / Ezra (2023) WEB-DLRip-AVC | P

download Скачать торрент-файл   magnet Магнитная ссылка Размер: 2.00 GB Раздают: 4 Качают: 0 Добавлен: il68k 2024-06-29 14:13
Пиры будут получены из сети DHT
Последний сидер был замечен сегодня в 17:39
Информация о фильме Название: Папа Оригинальное название: Ezra Год выхода: 2023 Жанр: драма, комедия Режиссер: Тони Голдуин В ролях: Бобби Каннавале, Роберт Де Ниро, Уильям А. Фицджералд, Вера Фармига, Вупи Голдберг, Роуз Бирн, Рэйн Уилсон, Тони Голдуин, Джеффри Оуэнс, Алекс Планк О фильме: Макс Берналь — стендап-комик, живущий со своим престарелым отцом и воспитывающий аутичного сына Эзру вместе с бывшей женой Дженной. Максу предстоит сделать непростое решение о будущем мальчика, и они вместе с Эзрой отправляются через всю страну в путешествие, которое изменит жизнь обоих. Страна: США Студия: Closer Media, Wayfarer Studios Продолжительность: 01:41:20 Перевод 1: Профессиональный (многоголосый закадровый) | HDRezka Studio Перевод 2: Профессиональный (многоголосый закадровый) | HDRezka Studio | 18+ Файл Кодек: Н.264 Качество: WEB-DLRip-AVC Видео: MPEG-4 AVC, 1995 kbps, 1024x512 (2.000), 23.976 fps, 0.159 bit/pixel, High@L4.1 Звук 1: 48 kHz, AC3 Dolby Digital, 2/0 (L, R) ch, ~192 kbps | HDRezka Studio Звук 2: 48 kHz, AC3 Dolby Digital, 2/0 (L, R) ch, ~192 kbps | HDRezka Studio | 18+ Звук 3: 48 kHz, AC3 Dolby Digital, 3/2 (L, C, R, l, r) + LFE ch, ~448 kbps | Английский Субтитры: русские (forced), английские (full, SDH), испанские Семпл
[+] Скриншоты
[+] MediaInfo raw : 1024x512p 1:1 @ 24000/1001 fps (cfr) x264 : using SAR=1/1 x264 : using cpu capabilities: MMX2 SSE2Fast SSSE3 SSE4.2 AVX FMA3 BMI2 AVX2 x264 : profile High, level 4.1, 4:2:0, 8-bit x264 : frame I:1055 Avg QP:15.22 size: 56534 x264 : frame P:30266 Avg QP:17.21 size: 23307 x264 : frame B:114462 Avg QP:19.12 size: 6560 x264 : consecutive B-frames: 1.5% 1.7% 6.6% 26.3% 15.6% 29.5% 6.5% 5.5% 4.1% 0.5% 0.8% 0.5% 1.0% x264 : mb I I16..4: 8.7% 79.2% 12.2% x264 : mb P I16..4: 1.2% 12.3% 1.0% P16..4: 37.8% 27.8% 14.3% 0.0% 0.0% skip: 5.7% x264 : mb B I16..4: 0.1% 0.5% 0.1% B16..8: 41.2% 12.1% 2.8% direct: 4.0% skip:39.3% L0:44.3% L1:47.5% BI: 8.2% x264 : 8x8 transform intra:83.5% inter:61.6% x264 : direct mvs spatial:100.0% temporal:0.0% x264 : coded y, uvDC, uvAC intra: 89.3% 82.7% 65.4% inter: 21.4% 16.9% 7.3% x264 : i16 v, h, dc, p: 40% 14% 15% 32% x264 : i8 v, h, dc, ddl, ddr, vr, hd, vl, hu: 9% 8% 12% 10% 13% 12% 12% 11% 13% x264 : i4 v, h, dc, ddl, ddr, vr, hd, vl, hu: 10% 8% 4% 10% 16% 15% 14% 11% 13% x264 : i8c dc, h, v, p: 47% 22% 17% 14% x264 : Weighted P-Frames: Y:3.8% UV:2.6% x264 : ref P L0: 48.3% 8.7% 16.9% 5.9% 5.2% 3.4% 3.3% 1.6% 1.7% 1.3% 1.3% 1.1% 1.2% 0.1% 0.0% x264 : ref B L0: 70.4% 12.5% 5.9% 3.0% 2.1% 1.8% 1.4% 0.9% 0.7% 0.7% 0.4% 0.2% x264 : ref B L1: 93.4% 6.6% x264 : kb/s:1994.57 x264 : encoded 145783 frames, 10.16 fps, 1994.57 kb/s ====================================================================== General Unique ID: 284617768043541569806575465554448540753 (0xD61F636240C442C6F37E294E7CD8E451) Complete name: D:\Rip\Papa.2023.AMZN.WEB-DLRip.AVC.mkv Format: Matroska Format version: Version 4 File size: 2.00 GiB Duration: 1 h 41 min Overall bit rate: 2 829 kb/s Frame rate: 23.976 FPS Movie name: Ezra (2023) WEB-DLRip-AVC _ vitolinform Encoded date: 2024-06-29 08:56:10 UTC Writing application: mkvmerge v85.0 ('Shame For You') 64-bit Writing library: libebml v1.4.5 + libmatroska v1.7.1 Attachments: poster.jpg / log.log Video ID: 1 Format: AVC Format/Info: Advanced Video Codec Format profile: High@L4.1 Format settings: CABAC / 13 Ref Frames Format settings, CABAC: Yes Format settings, Reference frames: 13 frames Codec ID: V_MPEG4/ISO/AVC Duration: 1 h 41 min Bit rate: 1 995 kb/s Width: 1 024 pixels Height: 512 pixels Display aspect ratio: 2.000 Frame rate mode: Constant Frame rate: 23.976 (24000/1001) FPS Color space: YUV Chroma subsampling: 4:2:0 Bit depth: 8 bits Scan type: Progressive Bits/(Pixel*Frame): 0.159 Stream size: 1.41 GiB (70%) Title: Папа / Ezra (2023) Writing library: x264 core 164 r3182 be4f020 Encoding settings: cabac=1 / ref=13 / deblock=1:-3:-3 / analyse=0x3:0x113 / me=umh / subme=10 / psy=1 / psy_rd=1.00:0.05 / mixed_ref=1 / me_range=32 / chroma_me=1 / trellis=2 / 8x8dct=1 / cqm=0 / deadzone=21, 11 / fast_pskip=0 / chroma_qp_offset=-3 / threads=12 / lookahead_threads=3 / sliced_threads=0 / nr=0 / decimate=0 / interlaced=0 / bluray_compat=0 / constrained_intra=0 / bframes=12 / b_pyramid=2 / b_adapt=2 / b_bias=0 / direct=3 / weightb=1 / open_gop=0 / weightp=2 / keyint=240 / keyint_min=24 / scenecut=40 / intra_refresh=0 / rc_lookahead=60 / rc=crf / mbtree=0 / crf=18.7 / qcomp=0.60 / qpmin=0 / qpmax=69 / qpstep=4 / vbv_maxrate=50000 / vbv_bufsize=62500 / crf_max=0.0 / nal_hrd=none / filler=0 / ip_ratio=1.40 / pb_ratio=1.30 / aq=1:1.00 Language: English Default: Yes Forced: No Color range: Limited Color primaries: BT.709 Transfer characteristics: BT.709 Matrix coefficients: BT.709 Audio #1 ID: 2 Format: AC-3 Format/Info: Audio Coding 3 Commercial name: Dolby Digital Codec ID: A_AC3 Duration: 1 h 41 min Bit rate mode: Constant Bit rate: 192 kb/s Channel(s): 2 channels Channel layout: L R Sampling rate: 48.0 kHz Frame rate: 31.250 FPS (1536 SPF) Compression mode: Lossy Stream size: 139 MiB (7%) Title: MVO | HDRezka Studio Language: Russian Service kind: Complete Main Default: Yes Forced: No Audio #2 ID: 3 Format: AC-3 Format/Info: Audio Coding 3 Commercial name: Dolby Digital Codec ID: A_AC3 Duration: 1 h 41 min Bit rate mode: Constant Bit rate: 192 kb/s Channel(s): 2 channels Channel layout: L R Sampling rate: 48.0 kHz Frame rate: 31.250 FPS (1536 SPF) Compression mode: Lossy Stream size: 139 MiB (7%) Title: MVO | HDRezka Studio | 18+ Language: Russian Service kind: Complete Main Default: No Forced: No Audio #3 ID: 4 Format: AC-3 Format/Info: Audio Coding 3 Commercial name: Dolby Digital Codec ID: A_AC3 Duration: 1 h 41 min Bit rate mode: Constant Bit rate: 448 kb/s Channel(s): 6 channels Channel layout: L R C LFE Ls Rs Sampling rate: 48.0 kHz Frame rate: 31.250 FPS (1536 SPF) Compression mode: Lossy Stream size: 325 MiB (16%) Title: English Language: English Service kind: Complete Main Default: No Forced: No Text #1 ID: 5 Format: UTF-8 Codec ID: S_TEXT/UTF8 Codec ID/Info: UTF-8 Plain Text Duration: 1 h 17 min Bit rate: 0 b/s Frame rate: 0.002 FPS Count of elements: 7 Stream size: 380 Bytes (0%) Title: Forced Language: Russian Default: Yes Forced: No Text #2 ID: 6 Format: UTF-8 Codec ID: S_TEXT/UTF8 Codec ID/Info: UTF-8 Plain Text Duration: 1 h 37 min Bit rate: 93 b/s Frame rate: 0.331 FPS Count of elements: 1933 Stream size: 66.7 KiB (0%) Title: Full Language: English Default: No Forced: No Text #3 ID: 7 Format: UTF-8 Codec ID: S_TEXT/UTF8 Codec ID/Info: UTF-8 Plain Text Duration: 1 h 40 min Bit rate: 98 b/s Frame rate: 0.342 FPS Count of elements: 2067 Stream size: 72.7 KiB (0%) Title: SDH Language: English Default: No Forced: No Text #4 ID: 8 Format: UTF-8 Codec ID: S_TEXT/UTF8 Codec ID/Info: UTF-8 Plain Text Duration: 1 h 35 min Bit rate: 86 b/s Frame rate: 0.331 FPS Count of elements: 1886 Stream size: 60.2 KiB (0%) Title: Full Language: Spanish Default: No Forced: No Menu 00:00:00.000: en:Scene 01 01:41:15.000: en:End Credits
Rip by vitolinform

Всего файлов в раздаче: 1 
Papa.2023.AMZN.WEB-DLRip.AVC.mkv2.00 GB

Похожие раздачи по запросу - Папа
Сегодня magnet Папа / Ezra (2023) BDRip от DoMiNo & селезень | P | HDRezka Studio 1.46 GB ↑ 0 ↓ 0
Сегодня magnet Папа / Ezra (2023) BDRip 720p от DoMiNo & селезень | P | HDRezka Studio 3.82 GB ↑ 0 ↓ 0
2024-06-30 magnet Папа / Ezra (2023) WEB-DLRip от DoMiNo & селезень | P | HDRezka Studio 1.47 GB ↑ 0 ↓ 0
2024-06-29 magnet Папа / Ezra (2023) WEB-DLRip от New-Team | P | HDRezka Studio 1.47 GB ↑ 0 ↓ 0
2024-06-29 magnet Папа / Ezra (2023) WEB-DL 1080p от New-Team | P | HDRezka Studio 6.64 GB ↑ 0 ↓ 1
2024-06-29 magnet Папа / Ezra (2023) WEB-DL 720p от селезень | P | HDRezka Studio 3.03 GB ↑ 0 ↓ 0
2023-10-28 magnet Папа из спецназа / The Retirement Plan (2023) BDRip 720p от селезень | D 3.88 GB ↑ 0 ↓ 0

Комментарии


Зарегистрируйтесь чтобы добавить комментарий
Торрент клиент
byTorrent - программа для загрузки торрент-файлов.

Скачать byTorrent.exe (1,5 МБ)

Скачать byTorrent.zip (0,6 МБ)

Поддержи torrent.by
российских рублей
(300 российских рублей это 4$)

Обратная связь rss

End game ©