↑↓torrent.by
Поиск
Логин:  Регистрация
Пароль:

Набережная блондинок / Quai des blondes (1953) DVDRip | A

download Скачать торрент-файл   magnet Магнитная ссылка Размер: 812.73 MB Добавлен: 2024-06-29 17:00
Пиры будут получены из сети DHT
Последний сидер был замечен 2024-06-30 17:27
Набережная блондинок Информация о фильме Год релиза: 1954 Выпущено: Франция Жанр: драма, криминал Режиссер: Поль Кадеак В ролях: Барбара Лаж, Мишель Оклер, Мадлен Лебо, Дарио Морено, Жорж Шамара, Анри Ариюс, Морис Биро, Луи Бюжетт, Поль Деманж, Жак Динам, Джани Эспозито, Мишлин Гари, Робер Оссейн, Андре Вальми, Джон Кицмиллер, Рене Бланкар О фильме: Блондинки часто провоцируют драки, особенно если блондинки – не женщины, а американские сигареты, контрабандой переправляемые через Танжер в порты Франции, Испании, Италии. Вслед за американским товаром на берегах Средиземного моря объявляется и банда американских гангстеров, возглавляемая Лаки Эспозито. Он намерен прибрать к своим рукам всю табачную торговлю в регионе и избавиться от местных дельцов, видное место среди которых занимает марсельский судовладелец Жак Феннер. Продолжительность: 01:21:28 Перевод A: Авторский (одноголосый закадровый) Линда Субтитры: русские Качество видео: DVDRip Формат видео: AVI Видео: Xvid, 704x512, 1.375, 25.000 fps, 1 060 Kbps Аудио: AC-3, 48 KHz, 192 Kbps, 2 channels, русский Аудио 2: МР3, 48 KHz, 128 Kbps, 2 channel, французский Реклама: Отсутствует
[+] MediaInfo Format : AVI Format/Info : Audio Video Interleave File size : 813 MiB Duration : 1h 21mn Overall bit rate : 1 395 Kbps Writing application : VirtualDubMod 1.5.10.1 Рус от Stvens Inc.™ www.stvens.amillo.net (build 2439/release) Writing library : VirtualDubMod build 2439/release Video ID : 0 Format : MPEG-4 Visual Format profile : Simple@L5 Format settings, BVOP : No Format settings, QPel : No Format settings, GMC : No warppoints Format settings, Matrix : Default (H.263) Codec ID : XVID Codec ID/Hint : XviD Duration : 1h 21mn Bit rate : 1 060 Kbps Width : 704 pixels Height : 512 pixels Display aspect ratio : 1.375 Frame rate : 25.000 fps Color space : YUV Chroma subsampling : 4:2:0 Bit depth : 8 bits Scan type : Progressive Compression mode : Lossy Bits/(Pixel*Frame) : 0.118 Stream size : 618 MiB (76%) Writing library : XviD 64 Audio #1 ID : 1 Format : AC-3 Format/Info : Audio Coding 3 Mode extension : CM (complete main) Format settings, Endianness : Big Codec ID : 2000 Duration : 1h 21mn Bit rate mode : Constant Bit rate : 192 Kbps Channel(s) : 2 channels Channel positions : Front: L R Sampling rate : 48.0 KHz Bit depth : 16 bits Compression mode : Lossy Stream size : 112 MiB (14%) Alignment : Split accross interleaves Interleave, duration : 40 ms (1.00 video frame) Interleave, preload duration : 500 ms Audio #2 ID : 2 Format : MPEG Audio Format version : Version 1 Format profile : Layer 3 Mode : Joint stereo Mode extension : MS Stereo Codec ID : 55 Codec ID/Hint : MP3 Duration : 1h 21mn Bit rate mode : Constant Bit rate : 128 Kbps Channel(s) : 2 channels Sampling rate : 48.0 KHz Compression mode : Lossy Stream size : 74.6 MiB (9%) Alignment : Aligned on interleaves Interleave, duration : 40 ms (1.00 video frame) Interleave, preload duration : 504 ms Writing library : LAME3.97 Encoding settings : -m j -V 4 -q 2 -lowpass 17 -b 128
[+] Скриншоты

Всего файлов в раздаче: 2 
Quai des blondes.avi812.63 MB
Quai des blondes.srt95.72 kB

Комментарии


Зарегистрируйтесь чтобы добавить комментарий
Торрент клиент
byTorrent - программа для загрузки торрент-файлов.

Скачать byTorrent.exe (1,5 МБ)

Скачать byTorrent.zip (0,6 МБ)

Поддержи torrent.by
российских рублей
(300 российских рублей это 4$)

Обратная связь rss

End game ©