↑↓torrent.by
Поиск
Логин:  Регистрация
Пароль:

Без вины виноватый / Wrongfully Accused (1998) WEB-DLRip-AVC от DoMiNo | P

download Скачать торрент-файл   magnet Магнитная ссылка Размер: 743.63 MB Добавлен: 2024-06-29 17:00
Пиры будут получены из сети DHT
Последний сидер был замечен 2024-07-01 18:26
Жанр: боевик, триллер, комедия Год выпуска: 1998 Режиссер: Пэт Профт В ролях: Лесли Нильсен, Ричард Кренна, Келли ЛеБрок, Мелинда МакГроу, Майкл Йорк, Сандра Бернхард, Аарон Перл, Лесли Джонс, Бен Рэтнер, Джерард Планкет Описание: На самом пике своей блестящей карьеры красавец — суперскрипач Райан Харрисон оказался втянутым богатой искусительницей Лорен Гудхью в одно паршивое дельце, связанное с убийством. Несмотря на то, что покушавшийся был одноруким, одноногим и одноглазым, невезучий Харрисон был арестован, признан виновным и приговорен к смертной казни. К счастью, тюремный автобус заносит на банановой кожуре, что позволяет Харрисону сбежать. Теперь беглец, обреченный на смерть, начинает гонку, преследуемый неутомимым агентом Фергюсом Фоллзом. Под градом пуль Харрисон спасает невиновных свидетелей, ищет настоящего убийцу, изобличает международный заговор и еще должен успеть получить из химчистки свой смокинг… Страна: Германия, США Продолжительность: 1:25:55 Перевод: Профессиональный (многоголосый закадровый) Файл Формат: Matroska Качество: WEB-DLRip-AVC Видео: 780x438 at 23.976 fps, x264, ~1128 kbps, 0.138 bpp Аудио: AAC, 2 ch, ~80 kbps - | MVO | - студия "Нота" по заказу РТР Субтитры: Russian, softsub (SRT) ***Релиз от: -=DoMiNo=-
[+] M/Ix264 info: frame I:1002 Avg QP:17.61 size: 28677 x264 info: frame P:34100 Avg QP:18.93 size: 11815 x264 info: frame B:88488 Avg QP:20.84 size: 3307 x264 info: consecutive B-frames: 4.1% 5.4% 15.2% 41.4% 18.0% 13.2% 1.7% 0.6% 0.2% 0.1% 0.0% 0.0% 0.0% General Format : Matroska Format version : Version 4 File size : 744 MiB Duration : 1 h 26 min Overall bit rate : 1 209 kb/s Movie name : Без вины виноватый.(1998).WEB-DLRip-AVC.F.S. Encoded date : UTC 2019-09-22 10:54:29 Writing application : mkvmerge v37.0.0 ('Leave It') 64-bit Writing library : libebml v1.3.9 + libmatroska v1.5.2 Attachments : poster.jpg / poster 2.jpg Video ID : 1 Format : AVC Format/Info : Advanced Video Codec Format profile : High@L4.1 Format settings : CABAC / 12 Ref Frames Format settings, CABAC : Yes Format settings, Reference : 12 frames Codec ID : V_MPEG4/ISO/AVC Duration : 1 h 25 min Bit rate : 1 128 kb/s Width : 780 pixels Height : 438 pixels Display aspect ratio : 16:9 Frame rate mode : Constant Frame rate : 23.976 (24000/1001) FPS Color space : YUV Chroma subsampling : 4:2:0 Bit depth : 8 bits Scan type : Progressive Bits/(Pixel*Frame) : 0.138 Stream size : 693 MiB (93%) Title : RIP_BY_-=DoMiNo=- Writing library : x264 core 157 r2958 57baac4 Encoding settings : cabac=1 / ref=12 / deblock=1:-1:-1 / analyse=0x3:0x133 / me=umh / subme=10 / psy=1 / psy_rd=1.00:0.15 / mixed_ref=1 / me_range=32 / chroma_me=1 / trellis=2 / 8x8dct=1 / cqm=0 / deadzone=21,11 / fast_pskip=0 / chroma_qp_offset=-3 / threads=6 / lookahead_threads=1 / sliced_threads=0 / nr=0 / decimate=0 / interlaced=0 / bluray_compat=0 / constrained_intra=0 / bframes=12 / b_pyramid=2 / b_adapt=2 / b_bias=0 / direct=3 / weightb=1 / open_gop=0 / weightp=2 / keyint=240 / keyint_min=24 / scenecut=40 / intra_refresh=0 / rc_lookahead=40 / rc=2pass / mbtree=0 / bitrate=1128 / ratetol=1.0 / qcomp=0.60 / qpmin=0 / qpmax=69 / qpstep=4 / cplxblur=20.0 / qblur=0.5 / vbv_maxrate=50000 / vbv_bufsize=62500 / nal_hrd=none / filler=0 / ip_ratio=1.40 / pb_ratio=1.30 / aq=1:1.00 Language : English Default : Yes Forced : No Audio ID : 2 Format : AAC LC SBR Format/Info : Advanced Audio Codec Low Complexity with Spectral Band Replication Commercial name : HE-AAC Format settings : Implicit Codec ID : A_AAC-2 Duration : 1 h 26 min Bit rate : 80.0 kb/s Channel(s) : 2 channels Channel layout : L R Sampling rate : 48.0 kHz Frame rate : 23.438 FPS (2048 SPF) Compression mode : Lossy Stream size : 49.2 MiB (7%) Title : MVO - РТР Language : Russian Default : Yes Forced : No Text ID : 3 Format : UTF-8 Codec ID : S_TEXT/UTF8 Codec ID/Info : UTF-8 Plain Text Duration : 1 h 18 min Bit rate : 74 b/s Count of elements : 583 Stream size : 43.2 KiB (0%) Language : Russian Default : No Forced : No Menu 00:00:00.000 : en:Глава 01 00:05:00.000 : en:Глава 02 00:10:00.000 : en:Глава 03 00:15:00.000 : en:Глава 04 00:20:00.000 : en:Глава 05 00:25:00.000 : en:Глава 06 00:30:00.000 : en:Глава 07 00:35:00.000 : en:Глава 08 00:40:00.000 : en:Глава 09 00:45:00.000 : en:Глава 10 00:50:00.000 : en:Глава 11 00:55:00.000 : en:Глава 12 01:00:00.000 : en:Глава 13 01:05:00.000 : en:Глава 14 01:10:00.000 : en:Глава 15 01:15:00.000 : en:Глава 16 01:20:00.000 : en:Глава 17 01:25:00.000 : en:Глава 18
[+] Скриншоты

Всего файлов в раздаче: 1 
Без вины виноватый.(1998).WEB-DLRip-AVC.F.S.[-=DoMiNo=-].mkv743.63 MB

Похожие раздачи по запросу - Без
Вчера magnet Голяк / Без гроша / Без денег / Brassic [05x01-03 из 08] (2023) WEB-DL 1080p | Кубик в Кубе 8.07 GB ↑ 1 ↓ 2
2024-07-17 magnet Без обид / No Hard Feelings (2023) BDRip 720p от селезень | D, P 5.67 GB ↑ 0 ↓ 0
2024-07-15 magnet Не хороните меня без Ивана (2022) WEB-DLRip-AVC от ExKinoRay 1.45 GB ↑ 0 ↓ 0
2024-07-08 magnet Голяк / Без гроша / Без денег / Brassic [05x01-02 из 08] (2023) WEB-DL 1080p | Кубик в Кубе 5.31 GB ↑ 0 ↓ 0
2024-07-05 magnet Без соков любви: Шорох в постели / No Love Juice: Rustling In Bed / OL no aijiru: Rabu jûsu (1999) WEB-DL 720p | L1 2.37 GB ↑ 0 ↓ 0
2024-07-05 magnet Николя Карро - Человек без истории (2024) МР3 288.93 MB ↑ 0 ↓ 0
2024-06-29 magnet Без вины виноватый / Wrongfully Accused (1998) BDRip-АVC | P, P2 2.18 GB ↑ 0 ↓ 0

Комментарии


Зарегистрируйтесь чтобы добавить комментарий
Торрент клиент
byTorrent - программа для загрузки торрент-файлов.

Скачать byTorrent.exe (1,5 МБ)

Скачать byTorrent.zip (0,6 МБ)

Поддержи torrent.by
российских рублей
(300 российских рублей это 4$)

Обратная связь rss

End game ©