↑↓torrent.by
Поиск
Логин:  Регистрация
Пароль:

Папа / Ezra (2023) WEB-DL 720p от селезень | P | HDRezka Studio

download Скачать торрент-файл   magnet Магнитная ссылка Размер: 3.03 GB Добавлен: 2024-06-29 17:00
Пиры будут получены из сети DHT
Последний сидер был замечен 2024-07-15 12:56
Информация о фильме Название: Папа Оригинальное название: Ezra Год выпуска: 2023 Жанр: драма, комедия Режиссер: Тони Голдуин / Tony Goldwyn В ролях: Бобби Каннавале, Роберт Де Ниро, Уильям А. Фицджералд, Вера Фармига, Вупи Голдберг, Роуз Бирн, Рэйн Уилсон, Тони Голдуин, Джеффри Оуэнс, Алекс Планк О фильме: У стендап-комика Макса не все ладится в жизни: в карьере нет больших успехов, жена планирует развод, поэтому ему пришлось переехать жить к пожилому отцу, который считает его неудачником. Но Макс очень хочет стать хорошим папой для своего 11-летнего сына-аутиста Эзры. Когда Эзру в очередной раз исключают из школы, Макс решает взять его с собой в путешествие через всю страну, чтобы вместе пережить удивительные приключения и наконец научиться понимать друг друга. Выпущено: США, Closer Media, Wayfarer Studios Продолжительность: 01:41:20 Перевод: Профессиональный (многоголосый, закадровый) | HDRezka Studio Субтитры: Русские (Forced), Английские Файл Формат: Matroska Качество: WEB-DL 720p | AMZN Видео: 1280x640 at 23.976 fps, MPEG-4 AVC, ~3248 kbps Аудио 1: AC3, 2 ch, ~192 kbps - | Русский | | HDRezka Studio Аудио 2: AC3, 2 ch, ~192 kbps - | Русский | | HDRezka Studio 18+ Аудио 3: E-AC3, 6 ch, ~640 kbps - | Английский | Формат субтитров: softsub (SRT)
[+] M/IGeneral Unique ID : 160409910491894610124469494625346452369 (0x78ADD3332725B976BAD5B9B4136AFB91) Complete name : G:Ezra.2023.AMZN.WEB-DL.720p.x264.seleZen.mkv Format : Matroska Format version : Version 4 File size : 3.03 GiB Duration : 1 h 41 min Overall bit rate : 4 275 kb/s Frame rate : 23.976 FPS Movie name : Ezra.2023.AMZN.WEB-DL.720p.x264.seleZen Encoded date : 2024-06-29 08:24:22 UTC Writing application : mkvmerge v85.0 ('Shame For You') 64-bit Writing library : libebml v1.4.5 + libmatroska v1.7.1 Cover : Yes Attachments : cover.jpg / small_cover.jpg Video ID : 1 Format : AVC Format/Info : Advanced Video Codec Format profile : High@L3.1 Format settings : CABAC / 4 Ref Frames Format settings, CABAC : Yes Format settings, Reference : 4 frames Codec ID : V_MPEG4/ISO/AVC Duration : 1 h 41 min Bit rate mode : Constant Bit rate : 3 248 kb/s Nominal bit rate : 4 000 kb/s Width : 1 280 pixels Height : 640 pixels Display aspect ratio : 2.000 Frame rate mode : Constant Frame rate : 23.976 (24000/1001) FPS Color space : YUV Chroma subsampling : 4:2:0 Bit depth : 8 bits Scan type : Progressive Bits/(Pixel*Frame) : 0.165 Stream size : 2.30 GiB (76%) Language : English Default : Yes Forced : No Color range : Limited Color primaries : BT.709 Transfer characteristics : BT.709 Matrix coefficients : BT.709 Audio #1 ID : 2 Format : AC-3 Format/Info : Audio Coding 3 Commercial name : Dolby Digital Codec ID : A_AC3 Duration : 1 h 41 min Bit rate mode : Constant Bit rate : 192 kb/s Channel(s) : 2 channels Channel layout : L R Sampling rate : 48.0 kHz Frame rate : 31.250 FPS (1536 SPF) Compression mode : Lossy Stream size : 139 MiB (4%) Title : HDRezka Studio Language : Russian Service kind : Complete Main Default : Yes Forced : No Dialog Normalization : -31 dB dialnorm_Average : -31 dB dialnorm_Minimum : -31 dB dialnorm_Maximum : -31 dB Audio #2 ID : 3 Format : AC-3 Format/Info : Audio Coding 3 Commercial name : Dolby Digital Codec ID : A_AC3 Duration : 1 h 41 min Bit rate mode : Constant Bit rate : 192 kb/s Channel(s) : 2 channels Channel layout : L R Sampling rate : 48.0 kHz Frame rate : 31.250 FPS (1536 SPF) Compression mode : Lossy Stream size : 139 MiB (4%) Title : HDRezka Studio | 18+ Language : Russian Service kind : Complete Main Default : No Forced : No Dialog Normalization : -31 dB dialnorm_Average : -31 dB dialnorm_Minimum : -31 dB dialnorm_Maximum : -31 dB Audio #3 ID : 5 Format : E-AC-3 Format/Info : Enhanced AC-3 Commercial name : Dolby Digital Plus Codec ID : A_EAC3 Duration : 1 h 41 min Bit rate mode : Constant Bit rate : 640 kb/s Channel(s) : 6 channels Channel layout : L R C LFE Ls Rs Sampling rate : 48.0 kHz Frame rate : 31.250 FPS (1536 SPF) Compression mode : Lossy Stream size : 464 MiB (15%) Language : English Service kind : Complete Main Default : No Forced : No Dialog Normalization : -31 dB compr : -0.28 dB dialnorm_Average : -31 dB dialnorm_Minimum : -31 dB dialnorm_Maximum : -31 dB Text #1 ID : 4 Format : UTF-8 Codec ID : S_TEXT/UTF8 Codec ID/Info : UTF-8 Plain Text Duration : 1 h 17 min Bit rate : 0 b/s Frame rate : 0.002 FPS Count of elements : 7 Stream size : 383 Bytes (0%) Title : Forced Language : Russian Default : No Forced : No Text #2 ID : 6 Format : UTF-8 Codec ID : S_TEXT/UTF8 Codec ID/Info : UTF-8 Plain Text Duration : 1 h 37 min Bit rate : 93 b/s Frame rate : 0.331 FPS Count of elements : 1933 Stream size : 66.7 KiB (0%) Language : English Default : No Forced : No Text #3 ID : 7 Format : UTF-8 Codec ID : S_TEXT/UTF8 Codec ID/Info : UTF-8 Plain Text Duration : 1 h 40 min Bit rate : 98 b/s Frame rate : 0.342 FPS Count of elements : 2067 Stream size : 72.7 KiB (0%) Title : SDH Language : English Default : No Forced : No Menu 00:00:00.000 : en:Scene 01 01:41:15.000 : en:End Credits
Релиз: Присоединяйся к: Кликай на баннеры.

Всего файлов в раздаче: 1 
Ezra.2023.AMZN.WEB-DL.720p.x264.seleZen.mkv3.03 GB

Похожие раздачи по запросу - Папа
2024-06-30 magnet Папа / Ezra (2023) WEB-DLRip от DoMiNo & селезень | P | HDRezka Studio 1.47 GB ↑ 0 ↓ 0
2024-06-29 magnet Папа / Ezra (2023) WEB-DLRip от New-Team | P | HDRezka Studio 1.47 GB ↑ 0 ↓ 0
2024-06-29 magnet Папа / Ezra (2023) WEB-DL 1080p от New-Team | P | HDRezka Studio 6.64 GB ↑ 0 ↓ 0
2024-06-29 magnet Папа / Ezra (2023) WEB-DLRip-AVC | P 2.00 GB ↑ 2 ↓ 0
2023-10-28 magnet Папа из спецназа / The Retirement Plan (2023) BDRip 720p от селезень | D 3.88 GB ↑ 0 ↓ 0

Комментарии


Зарегистрируйтесь чтобы добавить комментарий
Торрент клиент
byTorrent - программа для загрузки торрент-файлов.

Скачать byTorrent.exe (1,5 МБ)

Скачать byTorrent.zip (0,6 МБ)

Поддержи torrent.by
российских рублей
(300 российских рублей это 4$)

Обратная связь rss

End game ©