↑↓torrent.by
Поиск
Логин:  Регистрация
Пароль:

Чайный путь. Из Китая в Сибирь (2021) HDTVRip 720p

download Скачать торрент-файл   magnet Магнитная ссылка Размер: 1.54 GB Добавлен: 2024-06-29 17:00
Пиры будут получены из сети DHT
Последний сидер был замечен 2024-07-01 23:12
Информация о фильме Название: Чайный путь. Из Китая в Сибирь Год выхода: 2021 Жанр: Документальный, история Режиссер: Нэлли Тоболкина О фильме: О чайном пути — от верблюдов до поездов. Сотни людей месяцами мерзли, доставляя чай из Китая по Сибирскому тракту. Самый длинный караванный маршрут — Великий чайный путь — проходил и через Тобольскую губернию. Страна: Россия Студия: АНО ТРК "Тюменское время" Продолжительность: 00:52:59 Перевод: Не требуется Файл Кодек: AVC/H.264 Качество: HDTVRip 720p Видео: 1280x720 (16:9), 25 fps, AVC (H.264), High@L4,1, 4000 kbps avg, 0.174 bit/pixel Звук: Русский 48 kHz, AC3 Dolby Digital, 2/0 (L,R) ch, 160 kbps Семпл
[+] MediaInfoComplete name : F:НаладкиНовая папкаTea Road_From China to Siberia_720p.mkv Format : Matroska Format version : Version 4 File size : 1.54 GiB Duration : 52 min 59 s Overall bit rate : 4 160 kb/s Frame rate : 25.000 FPS Encoded date : 2024-06-29 04:48:15 UTC Writing application : mkvmerge v6.6.0 ('The Edge Of The In Between') built on Dec 1 2013 17:55:00 Writing library : libebml v1.3.0 + libmatroska v1.4.1 Video ID : 1 Format : AVC Format/Info : Advanced Video Codec Format profile : High@L4.1 Format settings : CABAC / 9 Ref Frames Format settings, CABAC : Yes Format settings, Reference : 9 frames Codec ID : V_MPEG4/ISO/AVC Duration : 52 min 59 s Bit rate : 4 000 kb/s Width : 1 280 pixels Height : 720 pixels Display aspect ratio : 16:9 Frame rate mode : Constant Frame rate : 25.000 FPS Color space : YUV Chroma subsampling : 4:2:0 Bit depth : 8 bits Scan type : Progressive Bits/(Pixel*Frame) : 0.174 Stream size : 1.45 GiB (94%) Writing library : x264 core 164 r3107 a8b68eb Encoding settings : cabac=1 / ref=9 / deblock=1:-1:-1 / analyse=0x3:0x113 / me=umh / subme=10 / psy=1 / psy_rd=1.00:0.15 / mixed_ref=1 / me_range=32 / chroma_me=1 / trellis=2 / 8x8dct=1 / cqm=0 / deadzone=21,11 / fast_pskip=1 / chroma_qp_offset=-3 / threads=16 / lookahead_threads=2 / sliced_threads=0 / nr=0 / decimate=1 / interlaced=0 / bluray_compat=0 / constrained_intra=0 / bframes=10 / b_pyramid=2 / b_adapt=2 / b_bias=0 / direct=1 / weightb=1 / open_gop=0 / weightp=2 / keyint=250 / keyint_min=25 / scenecut=40 / intra_refresh=0 / rc_lookahead=60 / rc=2pass / mbtree=1 / bitrate=4000 / ratetol=1.0 / qcomp=0.60 / qpmin=0 / qpmax=69 / qpstep=4 / cplxblur=20.0 / qblur=0.5 / vbv_maxrate=14000 / vbv_bufsize=14000 / nal_hrd=none / filler=0 / ip_ratio=1.40 / aq=1:1.00 Default : Yes Forced : No Audio ID : 2 Format : AC-3 Format/Info : Audio Coding 3 Commercial name : Dolby Digital Codec ID : A_AC3 Duration : 52 min 59 s Bit rate mode : Constant Bit rate : 160 kb/s Channel(s) : 2 channels Channel layout : L R Sampling rate : 48.0 kHz Frame rate : 31.250 FPS (1536 SPF) Compression mode : Lossy Stream size : 60.7 MiB (4%) Language : Russian Service kind : Complete Main Default : Yes Forced : No
[+] Скриншоты
Релиз от: kyba

Всего файлов в раздаче: 1 
Tea Road_From China to Siberia_720p.mkv1.54 GB

Комментарии


Зарегистрируйтесь чтобы добавить комментарий
Торрент клиент
byTorrent - программа для загрузки торрент-файлов.

Скачать byTorrent.exe (1,5 МБ)

Скачать byTorrent.zip (0,6 МБ)

Поддержи torrent.by
российских рублей
(300 российских рублей это 4$)

Обратная связь rss

End game ©