↑↓torrent.by
Поиск
Логин:  Регистрация
Пароль:

Охотники за привидениями: Леденящий ужас / Ghostbusters: Frozen Empire (2024) BDRip 1080p от Generalfilm | D

download Скачать торрент-файл   magnet Магнитная ссылка Размер: 5.54 GB Раздают: 0 Качают: 1 Добавлен: 2024-06-29 17:00
Пиры будут получены из сети DHT
Последний сидер был замечен 2024-07-18 18:57
Охотники за привидениями: Леденящий ужас / Ghostbusters: Frozen Empire Информация о фильме Год выпуска: 2024 Страна: США, Канада, Великобритания Студия: Columbia Pictures, Ghostcorps Жанр: фантастика, фэнтези, комедия, приключения Перевод: Дублированный | MovieDalen Продолжительность: 01:55:06 Субтитры: Русские | Forced Режиссер: Гил Кинан В ролях: Пол Радд, Кэрри Кун, Финн Вулфхард, Маккенна Грейс, Кумэйл Нанджиани, Пэттон Освальт, Селеста О’Коннор, Логан Ким, Эмили Элин Линд, Джеймс Акастер О фильме: Семья Спенглеров возвращается в легендарную пожарную часть в Нью-Йорке. Качество: BDRip 1080p Формат: MKV Видео: MPEG-4 AVC, 1920x800 (2.40:1), 23,976 fps, 6500 Kbit/s (0.177 bit/pixel) Аудио: русский, AC3, 5.1, 48 kHz, 384 kbps | MovieDalen Навигация по главам: есть Релиз от:
[+] ОтчетМедиаИнфо General Unique ID : 181694403121789712669082137663002415103 (0x88B111B51FBAC223A6ED91EE2C448FFF) Complete name : E:GFGhostbusters.Frozen.Empire.2024.BDRip.1080p.Rip.by.HardwareMining.R.G.Generalfilm.mkv Format : Matroska Format version : Version 4 File size : 5.54 GiB Duration : 1 h 55 min Overall bit rate : 6 888 kb/s Frame rate : 23.976 FPS Movie name : Ghostbusters.Frozen.Empire.2024.BDRip.1080p.Rip.by.HardwareMining.R.G.Generalfilm Encoded date : 2024-06-26 15:23:58 UTC Writing application : mkvmerge v6.8.0 ('Theme for Great Cities') 32bit built on Mar 2 2014 21:27:07 Writing library : libebml v1.3.0 + libmatroska v1.4.1 Cover : Yes Attachments : cover0.png Video ID : 1 Format : AVC Format/Info : Advanced Video Codec Format profile : High@L4.1 Format settings : CABAC / 4 Ref Frames Format settings, CABAC : Yes Format settings, Reference frames : 4 frames Codec ID : V_MPEG4/ISO/AVC Duration : 1 h 55 min Bit rate : 6 500 kb/s Width : 1 920 pixels Height : 800 pixels Display aspect ratio : 2.40:1 Frame rate mode : Constant Frame rate : 23.976 FPS Color space : YUV Chroma subsampling : 4:2:0 Bit depth : 8 bits Scan type : Progressive Bits/(Pixel*Frame) : 0.177 Stream size : 5.12 GiB (92%) Writing library : x264 core 130 r2273 b3065e6 Encoding settings : cabac=1 / ref=4 / deblock=1:-2:-1 / analyse=0x3:0x133 / me=umh / subme=10 / psy=1 / psy_rd=1.00:0.08 / mixed_ref=1 / me_range=32 / chroma_me=1 / trellis=2 / 8x8dct=1 / cqm=0 / deadzone=21,11 / fast_pskip=0 / chroma_qp_offset=-3 / threads=48 / lookahead_threads=6 / sliced_threads=0 / nr=0 / decimate=1 / interlaced=0 / bluray_compat=0 / constrained_intra=0 / bframes=11 / b_pyramid=2 / b_adapt=2 / b_bias=0 / direct=3 / weightb=1 / open_gop=0 / weightp=2 / keyint=250 / keyint_min=25 / scenecut=40 / intra_refresh=0 / rc=2pass / mbtree=0 / bitrate=6500 / ratetol=1.0 / qcomp=0.60 / qpmin=0 / qpmax=69 / qpstep=4 / cplxblur=20.0 / qblur=0.5 / ip_ratio=1.40 / pb_ratio=1.30 / aq=2:1.00 Language : English Default : Yes Forced : No Color range : Limited Color primaries : BT.709 Transfer characteristics : BT.709 Matrix coefficients : BT.709 Audio ID : 2 Format : AC-3 Format/Info : Audio Coding 3 Commercial name : Dolby Digital Codec ID : A_AC3 Duration : 1 h 55 min Bit rate mode : Constant Bit rate : 384 kb/s Channel(s) : 6 channels Channel layout : L R C LFE Ls Rs Sampling rate : 48.0 kHz Frame rate : 31.250 FPS (1536 SPF) Compression mode : Lossy Stream size : 316 MiB (6%) Title : Dub | MovieDalen Language : Russian Service kind : Complete Main Default : Yes Forced : No Dialog Normalization : -31 dB cmixlev : -3.0 dB surmixlev : -3 dB ltrtcmixlev : -3.0 dB ltrtsurmixlev : -3.0 dB lorocmixlev : -3.0 dB lorosurmixlev : -3.0 dB dialnorm_Average : -31 dB dialnorm_Minimum : -31 dB dialnorm_Maximum : -31 dB Text ID : 3 Format : UTF-8 Codec ID : S_TEXT/UTF8 Codec ID/Info : UTF-8 Plain Text Title : Forced Language : Russian Default : No Forced : No Menu 00:00:00.000 : en:Chapter 1 00:04:22.554 : en:Chapter 2 00:11:30.356 : en:Chapter 3 00:18:26.981 : en:Chapter 4 00:24:34.515 : en:Chapter 5 00:29:57.421 : en:Chapter 6 00:36:15.215 : en:Chapter 7 00:44:59.989 : en:Chapter 8 00:52:25.684 : en:Chapter 9 00:58:00.936 : en:Chapter 10 01:05:09.239 : en:Chapter 11 01:11:35.082 : en:Chapter 12 01:20:17.104 : en:Chapter 13 01:25:24.911 : en:Chapter 14 01:33:13.004 : en:Chapter 15 01:43:44.802 : en:Chapter 16
[+] Скриншоты

Всего файлов в раздаче: 1 
Ghostbusters.Frozen.Empire.2024.BDRip.1080p.Rip.by.HardwareMining.R.G.Generalfilm.mkv5.54 GB

Похожие раздачи по запросу - Охотники
2024-07-19 magnet Охотники за привидениями: Леденящий ужас / Мисливці на привидів: Крижана імперія / Ghostbusters: Frozen Empire (2024) BDRemux 1080p | D | UKR 25.33 GB ↑ 0 ↓ 0
2024-07-17 magnet Павел Барчук - Веер Миров 01, Охотники за Попаданцами (2024) МР3 367.77 MB ↑ 0 ↓ 0
2024-07-03 magnet Охотники из рая / The Hunted (2024) WEB-DLRip-AVC от New-Team | D 1.65 GB ↑ 0 ↓ 0
2024-07-03 magnet Охотники из рая / The Hunted (2024) WEB-DLRip от MegaPeer | D 1.46 GB ↑ 0 ↓ 0
2024-07-03 magnet Охотники из рая / The Hunted (2024) WEB-DL 1080p | D 3.85 GB ↑ 0 ↓ 0
2024-07-03 magnet Охотники из рая / The Hunted (2024) WEB-DLRip от DoMiNo & селезень | D 1.37 GB ↑ 0 ↓ 0
2024-07-01 magnet Охотники на ведьм / Hansel & Gretel: Witch Hunters (2013) BDRip 1080p HEVC от qusi555 | Лицензия | Theatrical Cut 4.48 GB ↑ 0 ↓ 0

Комментарии


Зарегистрируйтесь чтобы добавить комментарий
Торрент клиент
byTorrent - программа для загрузки торрент-файлов.

Скачать byTorrent.exe (1,5 МБ)

Скачать byTorrent.zip (0,6 МБ)

Поддержи torrent.by
российских рублей
(300 российских рублей это 4$)

Обратная связь rss

End game ©