↑↓torrent.by
Поиск
Логин:  Регистрация
Пароль:

Папа / Ezra (2023) WEB-DL 1080p от New-Team | P | HDRezka Studio

download Скачать торрент-файл   magnet Магнитная ссылка Размер: 6.64 GB Раздают: 0 Качают: 1 Добавлен: 2024-06-29 17:00
Пиры будут получены из сети DHT
Последний сидер был замечен 2024-07-20 00:19
Папа / Ezra Год выпуска: 2023 Выпущено: США, Closer Media, Wayfarer Studios Жанр: драма, комедия Режиссер: Тони Голдуин / Tony Goldwyn В ролях: Бобби Каннавале, Роберт Де Ниро, Уильям А. Фицджералд, Вера Фармига, Вупи Голдберг, Роуз Бирн, Рэйн Уилсон, Тони Голдуин, Джеффри Оуэнс, Алекс Планк О фильме: История Макса Бернала, который разрушил свою успешную карьеру и брак, чтобы стать менее успешным стендап-комиком. Продолжительность: 01:41:20 Перевод: Профессиональный (многоголосый, закадровый) | HDRezka Studio Субтитры: Русские (forced), английские Раздача от: Автор релиза: JNS82. Формат: MKV Качество: WEB-DL 1080p | AMZN Видео: MPEG-4 AVC, (2,000), 1920x960, 8351 Кбит/с, 23,976 fps Аудио #1: 48 kHz, AC3 Dolby Digital, 2/0 (L,R) ch, ~ 192 kbps | RUS | HDRezka Studio Аудио #2: 48 kHz, AC3 Dolby Digital, 2/0 (L,R) ch, ~ 192 kbps | RUS | HDRezka Studio | 18+ Аудио #3: 48 kHz, E-AC3 Dolby Digital, 3/2 (L,C,R,l,r) + LFE ch, ~ 640 kbps | ENG |
[+] MediaInfoОбщее Уникальный идентификатор : 99120490874728635374972632166152149647 (0x4A91E98284AAD2923DA9960373961A8F) Полное имя : D:TorrentsEzra.2023.1080p.AMZN_от New-Team.mkv Формат : Matroska Версия формата : Version 4 Размер файла : 6,64 Гбайт Продолжительность : 1 ч. 41 м. Общий поток : 9 378 Кбит/сек Название фильма : Ezra.2023.1080p.AMZN_от New-Team Дата кодирования : UTC 2024-06-29 04:49:39 Программа кодирования : mkvmerge v79.0 ('Funeral Pyres') 64-bit Библиотека кодирования : libebml v1.4.4 + libmatroska v1.7.1 Видео Идентификатор : 1 Формат : AVC Формат/Информация : Advanced Video Codec Профиль формата : High@L4 Настройки формата : CABAC / 4 Ref Frames Параметр CABAC формата : Да Параметр RefFrames формата : 4 кадра Идентификатор кодека : V_MPEG4/ISO/AVC Продолжительность : 1 ч. 41 м. Вид битрейта : Постоянный Битрейт : 8 351 Кбит/сек Номинальный битрейт : 10 000 Кбит/сек Ширина : 1 920 пикселей Высота : 960 пикселей Соотношение сторон : 2,000 Режим частоты кадров : Постоянный Частота кадров : 23,976 (24000/1001) кадра/сек Цветовое пространство : YUV Субдискретизация насыщенности : 4:2:0 Битовая глубина : 8 бит Тип развёртки : Прогрессивная Бит/(Пиксели*Кадры) : 0.189 Размер потока : 5,91 Гбайт (89%) Язык : English Default : Да Forced : Нет Цветовой диапазон : Limited Основные цвета : BT.709 Характеристики трансфера : BT.709 Коэффициенты матрицы : BT.709 Аудио #1 Идентификатор : 2 Формат : AC-3 Формат/Информация : Audio Coding 3 Коммерческое название : Dolby Digital Идентификатор кодека : A_AC3 Продолжительность : 1 ч. 41 м. Вид битрейта : Постоянный Битрейт : 192 Кбит/сек Каналы : 2 канала Channel layout : L R Частота : 48,0 КГц Частота кадров : 31,250 кадров/сек (1536 SPF) Метод сжатия : С потерями Размер потока : 139 Мбайт (2%) Заголовок : MVO - HDRezka Studio Язык : Russian Service kind : Complete Main Default : Да Forced : Нет Аудио #2 Идентификатор : 3 Формат : AC-3 Формат/Информация : Audio Coding 3 Коммерческое название : Dolby Digital Идентификатор кодека : A_AC3 Продолжительность : 1 ч. 41 м. Вид битрейта : Постоянный Битрейт : 192 Кбит/сек Каналы : 2 канала Channel layout : L R Частота : 48,0 КГц Частота кадров : 31,250 кадров/сек (1536 SPF) Метод сжатия : С потерями Размер потока : 139 Мбайт (2%) Заголовок : MVO - HDRezka Studio | 18+ Язык : Russian Service kind : Complete Main Default : Нет Forced : Нет Аудио #3 Идентификатор : 4 Формат : E-AC-3 Формат/Информация : Enhanced AC-3 Коммерческое название : Dolby Digital Plus Идентификатор кодека : A_EAC3 Продолжительность : 1 ч. 41 м. Вид битрейта : Постоянный Битрейт : 640 Кбит/сек Каналы : 6 каналов Channel layout : L R C LFE Ls Rs Частота : 48,0 КГц Частота кадров : 31,250 кадров/сек (1536 SPF) Метод сжатия : С потерями Размер потока : 464 Мбайт (7%) Заголовок : Original Язык : English Service kind : Complete Main Default : Нет Forced : Нет Текст #1 Идентификатор : 5 Формат : UTF-8 Идентификатор кодека : S_TEXT/UTF8 Идентификатор кодека/Информация : UTF-8 Plain Text Продолжительность : 1 ч. 17 м. Битрейт : 0 бит/сек Count of elements : 7 Размер потока : 380 байт (0%) Заголовок : Язык : Russian Default : Да Forced : Нет Текст #2 Идентификатор : 6 Формат : UTF-8 Идентификатор кодека : S_TEXT/UTF8 Идентификатор кодека/Информация : UTF-8 Plain Text Продолжительность : 1 ч. 37 м. Битрейт : 93 бит/сек Count of elements : 1933 Размер потока : 66,7 Кбайт (0%) Заголовок : Язык : English Default : Нет Forced : Нет Меню 00:00:00.000 : en:Scene 01 01:41:15.000 : en:End Credits

Всего файлов в раздаче: 1 
Ezra.2023.1080p.AMZN_от New-Team.mkv6.64 GB

Похожие раздачи по запросу - Папа
Сегодня magnet Папа / Ezra (2023) BDRip от DoMiNo & селезень | P | HDRezka Studio 1.46 GB ↑ 0 ↓ 0
Сегодня magnet Папа / Ezra (2023) BDRip 720p от DoMiNo & селезень | P | HDRezka Studio 3.82 GB ↑ 0 ↓ 0
2024-06-30 magnet Папа / Ezra (2023) WEB-DLRip от DoMiNo & селезень | P | HDRezka Studio 1.47 GB ↑ 0 ↓ 0
2024-06-29 magnet Папа / Ezra (2023) WEB-DLRip от New-Team | P | HDRezka Studio 1.47 GB ↑ 0 ↓ 0
2024-06-29 magnet Папа / Ezra (2023) WEB-DL 720p от селезень | P | HDRezka Studio 3.03 GB ↑ 0 ↓ 0
2024-06-29 magnet Папа / Ezra (2023) WEB-DLRip-AVC | P 2.00 GB ↑ 5 ↓ 0
2023-10-28 magnet Папа из спецназа / The Retirement Plan (2023) BDRip 720p от селезень | D 3.88 GB ↑ 0 ↓ 0

Комментарии


Зарегистрируйтесь чтобы добавить комментарий
Торрент клиент
byTorrent - программа для загрузки торрент-файлов.

Скачать byTorrent.exe (1,5 МБ)

Скачать byTorrent.zip (0,6 МБ)

Поддержи torrent.by
российских рублей
(300 российских рублей это 4$)

Обратная связь rss

End game ©