↑↓torrent.by
Поиск
Логин:  Регистрация
Пароль:

Нежить / In a Violent Nature (2024) WEB-DLRip-AVC | L

download Скачать торрент-файл   magnet Магнитная ссылка Размер: 1.39 GB Раздают: 19 Качают: 1 Добавлен: il68k 2024-06-29 21:38
Пиры будут получены из сети DHT
Последний сидер был замечен сегодня в 19:29
Информация о фильме Название: Нежить Оригинальное название: In a Violent Nature Год выпуска: 2023 Жанр: ужасы Режиссер: Крис Нэш В ролях: Райан Баррет, Андреа Павловиц, Камерон Лав, Рис Пресли, Лиам Леоне, Шарлотта Криган, Лиа Роуз Себастианис, Сэм Ролстон, Александр Оливер, Тимоти Пол О фильме: Компания студентов находит в лесу кулон на цепочке и забирает его, тем самым пробуждает беспощадное существо, заключенное в тело казненного много лет назад маньяка. Его нельзя убить, от него нельзя спрятаться или скрыться. Всех, кто встретится на его пути, ждёт смерть. Страна: Канада Студия: Low Sky Productions, Shudder, Zygote Pictures Продолжительность: 01:33:52 Перевод: Любительский (многоголосый закадровый) | RGB Файл Формат: MKV Качество: WEB-DLRip-AVC Видео: AVC/H.264, 720x540, 23.976 fps, ~1932 Kbps Аудио: 48 kHz, AC3, 2 ch, ~192 kbps | RGB Субтитры: английские (SRT) Семпл
[+] Скриншоты
[+] MediaInfo General Unique ID : 240999204710765183356944199232807298206 (0xB54EC22C922341D6D89EC730951CE49E) Complete name : E:\RGB\In.a.violent.nature.2024.WEB.MVO-.RGB.mkv Format : Matroska Format version : Version 4 File size : 1.39 GiB Duration : 1 h 33 min Overall bit rate : 2 126 kb/s Frame rate : 23.976 FPS Movie name : RGB Encoded date : 2024-06-28 22:05:02 UTC Writing application : mkvmerge v82.0 ('I'm The President') 64-bit Writing library : libebml v1.4.5 + libmatroska v1.7.1 Video ID : 1 Format : AVC Format/Info : Advanced Video Codec Format profile : High@L4.1 Format settings : CABAC / 10 Ref Frames Format settings, CABAC : Yes Format settings, Reference : 10 frames Codec ID : V_MPEG4/ISO/AVC Duration : 1 h 33 min Bit rate : 1 932 kb/s Width : 720 pixels Height : 540 pixels Display aspect ratio : 4:3 Frame rate mode : Constant Frame rate : 23.976 (24000/1001) FPS Color space : YUV Chroma subsampling : 4:2:0 Bit depth : 8 bits Scan type : Progressive Bits/(Pixel*Frame) : 0.207 Stream size : 1.27 GiB (91%) Title : RGB Language : English Default : Yes Forced : No Audio ID : 2 Format : AC-3 Format/Info : Audio Coding 3 Commercial name : Dolby Digital Codec ID : A_AC3 Duration : 1 h 33 min Bit rate mode : Constant Bit rate : 192 kb/s Channel(s) : 2 channels Channel layout : L R Sampling rate : 48.0 kHz Frame rate : 31.250 FPS (1536 SPF) Compression mode : Lossy Stream size : 129 MiB (9%) Title : MVO Language : Russian Service kind : Complete Main Default : Yes Forced : No Dialog Normalization : -31 dB compr : -0.28 dB mixlevel : 285 dB roomtyp : 3 ltrtcmixlev : -3.0 dB ltrtsurmixlev : -3.0 dB lorocmixlev : -3.0 dB lorosurmixlev : -3.0 dB dialnorm_Average : -31 dB dialnorm_Minimum : -31 dB dialnorm_Maximum : -31 dB Text ID : 3 Format : UTF-8 Codec ID : S_TEXT/UTF8 Codec ID/Info : UTF-8 Plain Text Duration : 1 h 33 min Bit rate : 40 b/s Frame rate : 0.183 FPS Count of elements : 1028 Stream size : 27.9 KiB (0%) Language : English Default : No Forced : No
Релиз от: RGB

Всего файлов в раздаче: 1 
In.a.violent.nature.2024.WEB.MVO-.RGB.mkv1.39 GB

Похожие раздачи по запросу - Нежить
2024-07-03 magnet Нежить / In a Violent Nature (2024) WEB-DL-HEVC 2160p | 4K | SDR | P, L 10.39 GB ↑ 0 ↓ 1
2024-07-02 magnet Нежить / In a Violent Nature (2024) WEB-DL 720p от селезень | P | HDRezka Studio 2.94 GB ↑ 0 ↓ 0
2024-07-02 magnet Нежить / In a Violent Nature (2024) WEB-DLRip от DoMiNo & селезень | P | HDRezka Studio 1.37 GB ↑ 0 ↓ 0
2024-07-02 magnet Нежить / In a Violent Nature (2024) WEB-DLRip-AVC | P | HDRezka Studio 1.46 GB ↑ 7 ↓ 1
2024-07-01 magnet Нежить / In a Violent Nature (2024) WEB-DL 1080p от New-Team | P | HDRezka Studio 6.57 GB ↑ 0 ↓ 0
2024-07-01 magnet Нежить / In a Violent Nature (2024) WEB-DLRip от New-Team | P | HDRezka Studio 1.46 GB ↑ 0 ↓ 0
2024-06-29 magnet Нежить / In a Violent Nature (2024) WEB-DLRip-AVC | L 1.46 GB ↑ 2 ↓ 0

Комментарии


Зарегистрируйтесь чтобы добавить комментарий
Торрент клиент
byTorrent - программа для загрузки торрент-файлов.

Скачать byTorrent.exe (1,5 МБ)

Скачать byTorrent.zip (0,6 МБ)

Поддержи torrent.by
российских рублей
(300 российских рублей это 4$)

Обратная связь rss

End game ©