↑↓torrent.by
Поиск
Логин:  Регистрация
Пароль:

Коснись единорога и загадай желание / Wish Upon a Unicorn (2020) BDRemux 1080p | D

download Скачать торрент-файл   magnet Магнитная ссылка Размер: 18.52 GB Добавлен: 2024-06-30 05:00
Пиры будут получены из сети DHT
Последний сидер был замечен 2024-06-30 05:00
Название: Коснись единорога и загадай желание Оригинальное название: Wish Upon A Unicorn Страна: США Студия: Universal 1440 Entertainment, Indy Entertainment Жанр: фэнтези, приключения, семейный Год выпуска: 2020 Продолжительность: 01:33:10 Перевод: Профессиональный (дублированный) iTunes Субтитры: английские, португальские (Бразилия), русские, испанские (Латинская Америка) Оригинальная аудиодорожка: английский Режиссер: Стив Бенчич / Steve Bencich В ролях: Райан Кира Армстронг, Саммер Фонтана, Джон Лажуа, Хлоя Уэбб, Кевин Дж. О’Коннор, Джон Грайз, Рик Овертон, Тейт Блум, Брэнскомб Ричмонд, Брайан Браун, Карли Дачер Описание: Две сестры вместе с отцом переезжают из города в деревню, пожить к бабушке. На её ферме они обнаруживают маленького единорога по имени Рокко, с которым заводят дружбу. Рокко обладает магическими силами и дарит девочкам немного счастья, шуток и смеха, что облегчает приспособление к новому дому и школе. Но когда местные нищие ковбои узнают о волшебном единороге, они похищают Рокко, чтобы использовать его силы для себя. Сёстры отправляются спасать своего друга. Тип релиза: BDRemux 1080p Контейнер: MKV Видео: AVC High@L4.1, 1920x1080, 16:9, 26 Mbps, 23.976 fps Аудио 1: русский, AC-3, 6 ch, 48 kHz, 384 kbps Аудио 2: английский, DTS XLL, 6 ch, 48 kHz, 2040 kbps Формат субтитров: английские (PGS+SRT), все остальные только softsub (SRT)
[+] MediaInfoОбщее Уникальный идентификатор : 909032765961297915239110907587073564 (0xAF12C691F2A3B34F059A9DBFB2161C) Полное имя : Wish.Upon.a.Unicorn.2020.1080p.BluRay.REMUX.AVC.DTS-HD.MA.5.1-TRiToN+RusAudio.mkv Формат : Matroska Версия формата : Version 4 Размер файла : 18,5 Гбайт Продолжительность : 1 ч. 33 м. Режим общего битрейта : Переменный Общий поток : 28,5 Мбит/сек Частота кадров : 23,976 кадра/сек Название фильма : Wish Upon a Unicorn (2020) Дата кодирования : 2024-06-25 14:33:47 UTC Программа кодирования : mkvmerge v80.0 ('Roundabout') 64-bit Библиотека кодирования : libebml v1.4.4 + libmatroska v1.7.1 IMDB : tt10798660 TMDB : movie/743227 Видео Идентификатор : 1 Формат : AVC Формат/Информация : Advanced Video Codec Профиль формата : High@L4.1 Настройки формата : CABAC / 4 Ref Frames Параметр CABAC формата : Да Параметр RefFrames формата : 4 кадра Идентификатор кодека : V_MPEG4/ISO/AVC Продолжительность : 1 ч. 33 м. Вид битрейта : Переменный Битрейт : 26,0 Мбит/сек Максимальный битрейт : 35,0 Мбит/сек Ширина : 1 920 пикселей Высота : 1 080 пикселей Соотношение сторон : 16:9 Режим частоты кадров : Постоянный Частота кадров : 23,976 (24000/1001) кадра/сек Стандарт вещания : NTSC Цветовое пространство : YUV Субдискретизация насыщенности : 4:2:0 Битовая глубина : 8 бит Тип развёртки : Прогрессивная Бит/(Пиксели*Кадры) : 0.523 Размер потока : 16,9 Гбайт (91%) Заголовок : MPEG-4 AVC Video / 26001 kbps / 1080p / 23.976 fps / 16:9 / High Profile 4.1 Язык : zxx Default : Да Forced : Нет Цветовой диапазон : Limited Основные цвета : BT.709 Характеристики трансфера : BT.709 Коэффициенты матрицы : BT.709 Аудио #1 Идентификатор : 2 Формат : AC-3 Формат/Информация : Audio Coding 3 Коммерческое название : Dolby Digital Идентификатор кодека : A_AC3 Продолжительность : 1 ч. 33 м. Вид битрейта : Постоянный Битрейт : 384 Кбит/сек Каналы : 6 каналов Channel layout : L R C LFE Ls Rs Частота : 48,0 КГц Частота кадров : 31,250 кадров/сек (1536 SPF) Метод сжатия : С потерями Размер потока : 256 Мбайт (1%) Язык : Russian Service kind : Complete Main Default : Да Forced : Нет Аудио #2 Идентификатор : 3 Формат : DTS XLL Формат/Информация : Digital Theater Systems Коммерческое название : DTS-HD Master Audio Идентификатор кодека : A_DTS Продолжительность : 1 ч. 33 м. Вид битрейта : Переменный Битрейт : 2 040 Кбит/сек Каналы : 6 каналов Channel layout : C L R Ls Rs LFE Частота : 48,0 КГц Частота кадров : 93,750 кадра/сек (512 SPF) Битовая глубина : 16 бит Метод сжатия : Без потерь Размер потока : 1,33 Гбайт (7%) Заголовок : DTS-HD Master Audio / 5.1 / 48 kHz / 2040 kbps / 16-bit Язык : English Default : Нет Forced : Нет Текст #1 Идентификатор : 4 Формат : PGS Режим смешивания : zlib Идентификатор кодека : S_HDMV/PGS Идентификатор кодека/Информация : Picture based subtitle format used on BDs/HD-DVDs Продолжительность : 1 ч. 32 м. Битрейт : 53,0 Кбит/сек Частота кадров : 0,642 кадр/сек Count of elements : 3566 Размер потока : 35,1 Мбайт (0%) Заголовок : SDH Язык : English Default : Нет Forced : Нет Текст #2 Идентификатор : 5 Формат : UTF-8 Идентификатор кодека : S_TEXT/UTF8 Идентификатор кодека/Информация : UTF-8 Plain Text Продолжительность : 1 ч. 28 м. Битрейт : 68 бит/сек Частота кадров : 0,317 кадр/сек Count of elements : 1674 Размер потока : 44,3 Кбайт (0%) Заголовок : English CC Язык : English Default : Нет Forced : Нет Текст #3 Идентификатор : 6 Формат : UTF-8 Идентификатор кодека : S_TEXT/UTF8 Идентификатор кодека/Информация : UTF-8 Plain Text Продолжительность : 1 ч. 31 м. Битрейт : 60 бит/сек Частота кадров : 0,277 кадр/сек Count of elements : 1520 Размер потока : 40,6 Кбайт (0%) Заголовок : Brazilian Язык : Portuguese Default : Нет Forced : Нет Текст #4 Идентификатор : 7 Формат : UTF-8 Идентификатор кодека : S_TEXT/UTF8 Идентификатор кодека/Информация : UTF-8 Plain Text Продолжительность : 1 ч. 32 м. Битрейт : 90 бит/сек Частота кадров : 0,173 кадр/сек Count of elements : 959 Размер потока : 61,6 Кбайт (0%) Язык : Russian Default : Нет Forced : Нет Текст #5 Идентификатор : 8 Формат : UTF-8 Идентификатор кодека : S_TEXT/UTF8 Идентификатор кодека/Информация : UTF-8 Plain Text Продолжительность : 1 ч. 31 м. Битрейт : 59 бит/сек Частота кадров : 0,266 кадр/сек Count of elements : 1462 Размер потока : 39,8 Кбайт (0%) Заголовок : Latin American Язык : Spanish Default : Нет Forced : Нет Меню 00:00:00.000 : en:Chapter 01 00:08:08.113 : en:Chapter 02 00:17:08.861 : en:Chapter 03 00:25:11.135 : en:Chapter 04 00:33:37.599 : en:Chapter 05 00:41:10.927 : en:Chapter 06 00:51:12.486 : en:Chapter 07 00:59:54.758 : en:Chapter 08 01:09:18.946 : en:Chapter 09 01:16:14.987 : en:Chapter 10 01:23:46.313 : en:Chapter 11 01:29:38.373 : en:Chapter 12
[+] Скриншоты

Всего файлов в раздаче: 1 
Wish.Upon.a.Unicorn.2020.1080p.BluRay.REMUX.AVC.DTS-HD.MA.5.1-TRiToN+RusAudio.mkv18.52 GB

Похожие раздачи по запросу - Коснись
2024-06-30 magnet Коснись единорога и загадай желание / Wish Upon a Unicorn (2020) BDRip от ExKinoRay | D 1.46 GB ↑ 0 ↓ 0
2024-06-30 magnet Коснись единорога и загадай желание / Wish Upon a Unicorn (2020) BDRip от DoMiNo & селезень | D | Кириллица 1.46 GB ↑ 0 ↓ 0

Комментарии


Зарегистрируйтесь чтобы добавить комментарий
Торрент клиент
byTorrent - программа для загрузки торрент-файлов.

Скачать byTorrent.exe (1,5 МБ)

Скачать byTorrent.zip (0,6 МБ)

Поддержи torrent.by
российских рублей
(300 российских рублей это 4$)

Обратная связь rss

End game ©