↑↓torrent.by
Поиск
Логин:  Регистрация
Пароль:

Верные друзья (1954) BDRip 720p от New-Team

download Скачать торрент-файл   magnet Магнитная ссылка Размер: 2.91 GB Добавлен: 2024-06-30 05:00
Пиры будут получены из сети DHT
Последний сидер был замечен 2024-07-04 12:29
Страна: СССР Производство: Мосфильм Жанр: мелодрама, комедия Год выпуска: 1954 Продолжительность: 01:40:29 Перевод: не требуется Оригинальная аудиодорожка: русский Cубтитры: нет Режиссер: Михаил Калатозов В ролях: Василий Меркурьев, Борис Чирков, Александр Борисов, Алексей Грибов, Лилия Гриценко, Людмила Шагалова, Алексей Покровский, Юрий Саранцев, Георгий Георгиу, Николай Сморчков, Михаил Пуговкин, Григорий Белов, Георгий Гумилевский, Елена Вольская, Вера Бурлакова, Людмила Геника-Чиркова, Анатолий Дудоров, Маргарита Жарова, Константин Нассонов, Александр Лебедев, Ольга Маркина, Владимир Лепко, Елена Савицкая, Клавдия Козлёнкова, Лариса Матвеенко, Елизавета Уварова, Юрий Леонидов, Василий Корнуков, Иван Косых, Петр Любешкин, Георгий Бударов, Иван Рыжов, Николай Парфёнов, Владимир Андреев, Зоя Степанова, Иван Кузнецов, Сергей Юртайкин, Всеволод Санаев, Александр Жуков, Владимир Ратомский, Алевтина Румянцева, Александра Денисова, Борис Ситко... Подробнее об актерах Роли дублировали: Георгий Вицин (Александр Жуков — дед на барже) Описание: Когда-то давно на одной из московских окраин жили три товарища: Сашка-«кошачий парень», Борька — «чижик» и Васька — «индюк». Прошли годы. Чижик стал известным московским хирургом Чижовым, Сашка — профессором-животноводом Лапиным, Васька — академиком архитектуры Нестратовым, работающим на строительстве первых высоток столицы. Вспомнив данное когда-то друг другу обещание, верные друзья отправляются в плавание по реке на бревенчатом плоту. Для Лапина путешествие оказывается особенно счастливым: он встречает давно любимую и любящую его женщину… Исходник: BDRemux 1080p Тип релиза: BDRip 720p Контейнер: MKV Видео: 992x720 (1,378:1), 23,976 кадра/сек, x264 core 138 r2356 ~ 3694 кбит/сек, 0.216 бит/пиксель Аудио: 48 кГц, Dolby Digital AC3 5.1, 448 кбит/сек Раздача от:
[+] MediaInfo Общее Полное имя : Верные друзья.1954.BDRip720p__by_AVP_Studio.mkv Формат : Matroska Версия формата : Version 4 / Version 2 Размер файла : 2,91 Гбайт Продолжительность : 1 ч. 40 м. Общий поток : 4144 Кбит/сек Название фильма : Vernye.druzjya.1954.BDRip720p__by_AVP_Studio Дата кодирования : UTC 2014-10-08 07:48:49 Программа кодирования : mkvmerge v7.2.0 ('On Every Street') 64bit built on Sep 13 2014 15:52:10 Библиотека кодирования : libebml v1.3.0 + libmatroska v1.4.1 DURATION : 01:40:29.664000000 NUMBER_OF_FRAMES : 188427 NUMBER_OF_BYTES : 337661184 _STATISTICS_WRITING_APP : mkvmerge v7.2.0 ('On Every Street') 64bit built on Sep 13 2014 15:52:10 _STATISTICS_WRITING_DATE_UTC : 2014-10-08 07:48:49 _STATISTICS_TAGS : BPS DURATION NUMBER_OF_FRAMES NUMBER_OF_BYTES Видео Идентификатор : 1 Формат : AVC Формат/Информация : Advanced Video Codec Профиль формата : High@L4.1 Параметр CABAC формата : Да Параметр ReFrames формата : 6 кадров Идентификатор кодека : V_MPEG4/ISO/AVC Продолжительность : 1 ч. 40 м. Битрейт : 3694 Кбит/сек Ширина : 992 пикселя Высота : 720 пикселей Соотношение сторон : 1,378 Режим частоты кадров : Постоянный Частота кадров : 23,976 кадра/сек Цветовое пространство : YUV Субдискретизация насыщенности : 4:2:0 Битовая глубина : 8 бит Тип развёртки : Прогрессивная Бит/(Пиксели*Кадры) : 0.216 Размер потока : 2,54 Гбайт (87%) Заголовок : Источник BDRemux Библиотека кодирования : x264 core 138 r2356 a1d3d17 Настройки программы : cabac=1 / ref=6 / deblock=1:-3:-3 / analyse=0x3:0x133 / me=umh / subme=10 / psy=1 / psy_rd=1.00:0.05 / mixed_ref=1 / me_range=32 / chroma_me=1 / trellis=2 / 8x8dct=1 / cqm=0 / deadzone=21,11 / fast_pskip=0 / chroma_qp_offset=-3 / threads=6 / lookahead_threads=1 / sliced_threads=0 / nr=0 / decimate=0 / interlaced=0 / bluray_compat=0 / constrained_intra=0 / bframes=8 / b_pyramid=2 / b_adapt=2 / b_bias=0 / direct=3 / weightb=1 / open_gop=0 / weightp=2 / keyint=240 / keyint_min=24 / scenecut=40 / intra_refresh=0 / rc=2pass / mbtree=0 / bitrate=3694 / ratetol=1.0 / qcomp=0.60 / qpmin=0 / qpmax=69 / qpstep=4 / cplxblur=20.0 / qblur=0.5 / ip_ratio=1.40 / pb_ratio=1.30 / aq=1:1.00 Язык : Russian Default : Да Forced : Нет Аудио Идентификатор : 2 Формат : AC-3 Формат/Информация : Audio Coding 3 Расширение режима : CM (complete main) Параметр Endianness формата : Big Идентификатор кодека : A_AC3 Продолжительность : 1 ч. 40 м. Вид битрейта : Постоянный Битрейт : 448 Кбит/сек Каналы : 6 каналов Расположение каналов : Front: L C R, Side: L R, LFE Частота : 48,0 КГц Битовая глубина : 16 бит Метод сжатия : С потерями Размер потока : 322 Мбайт (11%) Заголовок : Источник BDRemux Язык : Russian Default : Да Forced : Нет Меню 00:00:00.000 : en:Chapter 01 00:04:01.241 : en:Chapter 02 00:11:19.679 : en:Chapter 03 00:17:51.070 : en:Chapter 04 00:25:29.527 : en:Chapter 05 00:32:31.950 : en:Chapter 06 00:40:18.416 : en:Chapter 07 00:50:31.153 : en:Chapter 08 00:59:15.760 : en:Chapter 09 01:06:54.010 : en:Chapter 10 01:17:13.629 : en:Chapter 11 01:25:56.901 : en:Chapter 12 01:29:44.504 : en:Chapter 13 01:35:05.491 : en:Chapter 14
[+] Скриншоты

Всего файлов в раздаче: 1 
Верные друзья.1954.BDRip720p_[New-team]_by_AVP_Studio.mkv2.91 GB

Похожие раздачи по запросу - Верные
2024-06-29 magnet Верные друзья (1954) BDRip-AVC от New-Team 1.46 GB ↑ 0 ↓ 0

Комментарии

kuzh13
Превосходная ретро-комедия. От всего сердца благодарю за раздачу!


Зарегистрируйтесь чтобы добавить комментарий
Торрент клиент
byTorrent - программа для загрузки торрент-файлов.

Скачать byTorrent.exe (1,5 МБ)

Скачать byTorrent.zip (0,6 МБ)

Поддержи torrent.by
российских рублей
(300 российских рублей это 4$)

Обратная связь rss

End game ©