↑↓torrent.by
Поиск
Логин:  Регистрация
Пароль:

Гудини / Houdini (1998) DVDRemux | A, A, P

download Скачать торрент-файл   magnet Магнитная ссылка Размер: 4.44 GB Добавлен: 2024-06-30 05:00
Пиры будут получены из сети DHT
Последний сидер был замечен сегодня в 11:39
Гудини Информация о фильме Год релиза: 1998 Выпущено: Драма Жанр: Драма Режиссер: Пен Деншэм В ролях: Джонатон Шэк, Стэйси Эдвардс, Пол Сорвино, Риа Перлмэн, Дэвид Уорнер, Марк Руффало, Грэйс Забриски, Рон Перлман, Карл Мэкинен, Джуди Гисон, Фрэнк МакРэй, Джордж Сигал О фильме: Традиционная и приятная биографическая драма о Гарри Гудини, самом знаменитом фокуснике XX века. Фильм рассказывает о нем самом, его близких, любви, жизненном пути к славе и бессмертию. Истории восхождения от бедности и безызвестности всегда доставляют удовольствие зрителю. Создатели фильма весьма ответственно подошли к воссозданию атмосферы начала века - костюмы, декорации, образы героев очень точны. Продолжительность: 01:34:19 Перевод P: Профессиональный (многоголосый закадровый) Варус Видео Перевод A: Авторский (одноголосый закадровый) - Александр Кашкин Перевод A: Авторский (одноголосый закадровый) - Андрей Дольский Субтитры: нет Качество видео: DVDRemux Формат видео: MKV Видео: MPEG2 Video 720x480 (4:3) 29.97fps Bit rate 5 974 kb/s Аудио 1: Dolby AC3 48000Hz 2 ch stereo 192kbps VARUS Аудио 2: Dolby AC3 48000Hz 2 ch mono 192kbps Кашкин Аудио 3: Dolby AC3 48000Hz 2 ch mono 192kbps Дольский Оригинальная аудиодорожка: Dolby AC3 48000Hz 2 ch 192kbps English Реклама: Отсутствует
[+] MediaInfo Гудини (Houdini) DVDRemux .mkv Format : Matroska Format version : Version 4 File size : 4.44 GiB Duration : 1 h 34 min Overall bit rate mode : Variable Overall bit rate : 6 746 kb/s Frame rate : 23.976 FPS Encoded date : 2024-06-23 04:16:27 UTC Writing application : mkvmerge v71.0.0 ('Altitude') 64-bit Writing library : libebml v1.4.4 + libmatroska v1.7.1 Video ID : 1 ID in the original source m : 224 (0xE0) Format : MPEG Video Format version : Version 2 Format profile : Main@Main Format settings : CustomMatrix / BVOP Format settings, BVOP : Yes Format settings, Matrix : Custom Format settings, GOP : M=3, N=15 Codec ID : V_MPEG2 Codec ID/Info : MPEG 1 or 2 Video Duration : 1 h 34 min Bit rate mode : Variable Bit rate : 5 974 kb/s Maximum bit rate : 7 700 kb/s Width : 720 pixels Height : 480 pixels Display aspect ratio : 4:3 Frame rate mode : Variable Frame rate : 23.976 FPS Standard : NTSC Color space : YUV Chroma subsampling : 4:2:0 Bit depth : 8 bits Scan type : Progressive Scan order : 2:3 Pulldown Compression mode : Lossy Bits/(Pixel*Frame) : 0.721 Time code of first frame : 01:14:55:12 Time code source : Group of pictures header GOP, Open/Closed : Closed Stream size : 3.94 GiB (89%) Language : English Default : No Forced : No Color primaries : BT.601 NTSC Transfer characteristics : BT.601 Matrix coefficients : BT.601 Original source medium : DVD-Video Audio #1 ID : 2 Format : AC-3 Format/Info : Audio Coding 3 Commercial name : Dolby Digital Codec ID : A_AC3 Duration : 1 h 34 min Bit rate mode : Constant Bit rate : 192 kb/s Channel(s) : 2 channels Channel layout : L R Sampling rate : 48.0 kHz Frame rate : 31.250 FPS (1536 SPF) Compression mode : Lossy Stream size : 130 MiB (3%) Title : MVO VARUS Language : Russian Service kind : Complete Main Default : Yes Forced : No Audio #2 ID : 3 Format : AC-3 Format/Info : Audio Coding 3 Commercial name : Dolby Digital Codec ID : A_AC3 Duration : 1 h 34 min Bit rate mode : Constant Bit rate : 192 kb/s Channel(s) : 2 channels Channel layout : L R Sampling rate : 48.0 kHz Frame rate : 31.250 FPS (1536 SPF) Compression mode : Lossy Stream size : 130 MiB (3%) Title : Кашкин Language : Russian Service kind : Complete Main Default : No Forced : No Audio #3 ID : 4 Format : AC-3 Format/Info : Audio Coding 3 Commercial name : Dolby Digital Codec ID : A_AC3 Duration : 1 h 34 min Bit rate mode : Constant Bit rate : 192 kb/s Channel(s) : 2 channels Channel layout : L R Sampling rate : 48.0 kHz Frame rate : 31.250 FPS (1536 SPF) Compression mode : Lossy Stream size : 130 MiB (3%) Title : Дольский Language : Russian Service kind : Complete Main Default : No Forced : No Audio #4 ID : 5 ID in the original source m : 189 (0xBD)128 (0x80) Format : AC-3 Format/Info : Audio Coding 3 Commercial name : Dolby Digital Codec ID : A_AC3 Duration : 1 h 34 min Bit rate mode : Constant Bit rate : 192 kb/s Channel(s) : 2 channels Channel layout : L R Sampling rate : 48.0 kHz Frame rate : 31.250 FPS (1536 SPF) Compression mode : Lossy Stream size : 130 MiB (3%) Language : English Service kind : Complete Main Default : No Forced : No Original source medium : DVD-Video
[+] Скриншоты

Всего файлов в раздаче: 1 
Гудини (Houdini) DVDRemux [by ale_x2008].mkv4.44 GB

Комментарии


Зарегистрируйтесь чтобы добавить комментарий
Торрент клиент
byTorrent - программа для загрузки торрент-файлов.

Скачать byTorrent.exe (1,5 МБ)

Скачать byTorrent.zip (0,6 МБ)

Поддержи torrent.by
российских рублей
(300 российских рублей это 4$)

Обратная связь rss

End game ©