↑↓torrent.by
Поиск
Логин:  Регистрация
Пароль:

Hiatus Kaiyote - Love Heart Cheat Code [24Bit, Hi-Res] (2024) FLAC

download Скачать торрент-файл   magnet Магнитная ссылка Размер: 454.36 MB Добавлен: 2024-06-30 05:00
Пиры будут получены из сети DHT
Последний сидер был замечен 2024-07-10 17:33
Hiatus Kaiyote - Love Heart Cheat Code (2024) Жанр: R&B, Future Soul, Neo Jazz Издание: 2024 Brainfeeder Источник: ссылка Продолжительность: 00:36:24 Кодек: FLAC 24/44.1,48 Битрейт: Lossless|WEB-DL Тип рипа: tracks Треклист: 01. Dreamboat 02. Telescope 03. Make Friends 04. BMO is Beautiful 05. Everything’s Beautiful 06. Dimitri 07. Longcat 08. How To Meet Yourself 09. Love Heart Cheat Code 10. Cinnamon Temple 11. White Rabbit
[+] Дополнительная информация: Melbourne, Australia https://hiatuskaiyote.bandcamp.com/music
[+] Отчёт Замер динамического диапазона: foobar2000 2.1.5 / Замер динамического диапазона (DR) 1.1.1 Дата отчёта: 2024-06-29 14:37:40 -------------------------------------------------------------------------------- Статистика для: 05-Everything’s Beautiful Количество сэмплов: 7518139 Продолжительность: 2:50 -------------------------------------------------------------------------------- Левый Правый Пики: -0.18 дБ --- -0.20 дБ Средний RMS: -9.22 дБ --- -9.14 дБ DR канала: 7.67 дБ --- 7.71 дБ -------------------------------------------------------------------------------- Реальные значения DR: DR8 Частота: 44100 Гц Каналов: 2 Разрядность: 24 Битрейт: 1628 кбит/с Кодек: FLAC ================================================================================ foobar2000 2.1.5 / Замер динамического диапазона (DR) 1.1.1 Дата отчёта: 2024-06-29 14:38:09 -------------------------------------------------------------------------------- Анализ: Hiatus Kaiyote & Niki Yang / Love Heart Cheat Code (1) Hiatus Kaiyote / Love Heart Cheat Code (2-10) -------------------------------------------------------------------------------- DR Пики RMS Продолжительность трека -------------------------------------------------------------------------------- DR8 -0.21 дБ -10.16 дБ 0:41 04-BMO is Beautiful DR6 -0.21 дБ -9.61 дБ 2:11 01-Dreamboat DR6 -0.20 дБ -8.81 дБ 4:46 02-Telescope DR8 -0.20 дБ -8.82 дБ 4:54 03-Make Friends DR7 -0.20 дБ -8.15 дБ 4:28 06-Dimitri DR7 -0.21 дБ -10.51 дБ 1:48 07-Longcat DR7 -0.21 дБ -9.38 дБ 3:17 08-How To Meet Yourself DR6 -0.20 дБ -8.46 дБ 4:33 09-Love Heart Cheat Code DR4 -0.20 дБ -5.55 дБ 3:21 10-Cinnamon Temple DR4 -0.20 дБ -6.07 дБ 3:34 11-White Rabbit -------------------------------------------------------------------------------- Количество треков: 10 Реальные значения DR: DR6 Частота: 48000 Гц Каналов: 2 Разрядность: 24 Битрейт: 1811 кбит/с Кодек: FLAC ================================================================================
[+] Отчёт Mi: Format : FLAC Format/Info : Free Lossless Audio Codec File size : 26.1 MiB Duration : 2 min 11 s Overall bit rate mode : Variable Overall bit rate : 1 669 kb/s Album : Love Heart Cheat Code Album/Performer : Hiatus Kaiyote Part : 1 Part/Total : 1 Track name : Dreamboat Track name/Position : 1 Track name/Total : 11 Performer : Hiatus Kaiyote Composer : Paul Bender, Naomi Saalfield, Simon Mavin & Perrin Moss Producer : Brainfeeder Label : Brainfeeder Genre : Alternativa & Indie Recorded date : 2024-06-28 ISRC : GBCFB2400119 Copyright : 2024 Brainfeeder 2024 Brainfeeder Cover : Yes Cover type : Cover (front) Cover MIME : image/jpeg PRODUCER : Hiatus Kaiyote INVOLVEDPEOPLE : Mario Caldato Jr., MixingEngineer - Hiatus Kaiyote, Producer, MainArtist, MixingEngineer - Paul Bender, ComposerLyricist - Naomi Saalfield, ComposerLyricist - Simon Mavin, ComposerLyricist - Perrin Moss, ComposerLyricist - Andrei Eremin, MasteringEngineer - Jonathan Maia, MixingEngineer - Warner Chappell Music/Universal Music Publishing Group (APRA/BMI), MusicPublisher UPC : 5054429192285 MEDIATYPE : album ITUNESADVISORY : 0 URL : https://www.qobuz.com/fr-fr/album/love-heart-cheat-code-hiatus-kaiyote/q0mw78fbrvp4a Audio Format : FLAC Format/Info : Free Lossless Audio Codec Duration : 2 min 11 s Bit rate mode : Variable Bit rate : 1 663 kb/s Channel(s) : 2 channels Channel layout : L R Sampling rate : 48.0 kHz Bit depth : 24 bits Compression mode : Lossless Stream size : 26.0 MiB (100%) MD5 of the unencoded content : 00000000000000000000000000000000 General Complete name : C:Deemix MusicHiatus KaiyoteLove Heart Cheat CodeFLAC (24bit-44.1kHz)�2 - Telescope.flac Format : FLAC Format/Info : Free Lossless Audio Codec File size : 58.0 MiB Duration : 4 min 46 s Overall bit rate mode : Variable Overall bit rate : 1 698 kb/s Album : Love Heart Cheat Code Album/Performer : Hiatus Kaiyote Part : 1 Part/Total : 1 Track name : Telescope Track name/Position : 2 Track name/Total : 11 Performer : Hiatus Kaiyote Composer : Ronald White, SMOKEY ROBINSON, Paul Bender, Naomi Saalfield, Simon Mavin & Perrin Moss Producer : Brainfeeder Label : Brainfeeder Genre : Alternativa & Indie Recorded date : 2024-06-28 ISRC : GBCFB2400120 Copyright : 2024 Brainfeeder 2024 Brainfeeder Cover : Yes Cover type : Cover (front) Cover MIME : image/jpeg PRODUCER : Hiatus Kaiyote INVOLVEDPEOPLE : Ronald White, ComposerLyricist - Mario Caldato Jr., MixingEngineer - SMOKEY ROBINSON, ComposerLyricist - Hiatus Kaiyote, Producer, MainArtist, MixingEngineer - Paul Bender, ComposerLyricist - Naomi Saalfield, ComposerLyricist - Simon Mavin, ComposerLyricist - Perrin Moss, ComposerLyricist - Bourne Co. (ASCAP), MusicPublisher - Andrei Eremin, MasteringEngineer - Jonathan Maia, MixingEngineer - Warner Chappell Music/Universal Music Publishing Group (APRA/BMI), MusicPublisher - EMI Pop Music Publishing (GMR), MusicPublisher UPC : 5054429192285 MEDIATYPE : album ITUNESADVISORY : 0 URL : https://www.qobuz.com/fr-fr/album/love-heart-cheat-code-hiatus-kaiyote/q0mw78fbrvp4a Audio Format : FLAC Format/Info : Free Lossless Audio Codec Duration : 4 min 46 s Bit rate mode : Variable Bit rate : 1 696 kb/s Channel(s) : 2 channels Channel layout : L R Sampling rate : 48.0 kHz Bit depth : 24 bits Compression mode : Lossless Stream size : 57.9 MiB (100%) MD5 of the unencoded content : 00000000000000000000000000000000 General Complete name : C:Deemix MusicHiatus KaiyoteLove Heart Cheat CodeFLAC (24bit-44.1kHz)�3 - Make Friends.flac Format : FLAC Format/Info : Free Lossless Audio Codec File size : 60.3 MiB Duration : 4 min 53 s Overall bit rate mode : Variable Overall bit rate : 1 720 kb/s Album : Love Heart Cheat Code Album/Performer : Hiatus Kaiyote Part : 1 Part/Total : 1 Track name : Make Friends Track name/Position : 3 Track name/Total : 11 Performer : Hiatus Kaiyote Composer : Paul Bender, Naomi Saalfield, Simon Mavin & Perrin Moss Producer : Brainfeeder Label : Brainfeeder Genre : Alternativa & Indie Recorded date : 2024-06-28 ISRC : GBCFB2400121 Copyright : 2024 Brainfeeder 2024 Brainfeeder Cover : Yes Cover type : Cover (front) Cover MIME : image/jpeg PRODUCER : Hiatus Kaiyote INVOLVEDPEOPLE : Mario Caldato Jr., MixingEngineer - Hiatus Kaiyote, Producer, MainArtist - Paul Bender, ComposerLyricist - Naomi Saalfield, ComposerLyricist - Simon Mavin, ComposerLyricist - Perrin Moss, ComposerLyricist - Andrei Eremin, MasteringEngineer - Jonathan Maia, MixingEngineer - Warner Chappell Music/Universal Music Publishing Group (APRA/BMI), MusicPublisher UPC : 5054429192285 MEDIATYPE : album ITUNESADVISORY : 0 URL : https://www.qobuz.com/fr-fr/album/love-heart-cheat-code-hiatus-kaiyote/q0mw78fbrvp4a Audio Format : FLAC Format/Info : Free Lossless Audio Codec Duration : 4 min 53 s Bit rate mode : Variable Bit rate : 1 717 kb/s Channel(s) : 2 channels Channel layout : L R Sampling rate : 48.0 kHz Bit depth : 24 bits Compression mode : Lossless Stream size : 60.2 MiB (100%) MD5 of the unencoded content : 00000000000000000000000000000000 General Complete name : C:Deemix MusicHiatus KaiyoteLove Heart Cheat CodeFLAC (24bit-44.1kHz)�4 - BMO is Beautiful.flac Format : FLAC Format/Info : Free Lossless Audio Codec File size : 7.96 MiB Duration : 41 s 440 ms Overall bit rate mode : Variable Overall bit rate : 1 612 kb/s Album : Love Heart Cheat Code Album/Performer : Hiatus Kaiyote Part : 1 Part/Total : 1 Track name : BMO is Beautiful Track name/Position : 4 Track name/Total : 11 Performer : Hiatus Kaiyote & Niki Yang Composer : Paul Bender, Naomi Saalfield, Simon Mavin & Perrin Moss Producer : Brainfeeder Label : Brainfeeder Genre : Alternativa & Indie Recorded date : 2024-06-28 ISRC : GBCFB2400122 Copyright : 2024 Brainfeeder 2024 Brainfeeder Cover : Yes Cover type : Cover (front) Cover MIME : image/jpeg PRODUCER : Hiatus Kaiyote INVOLVEDPEOPLE : Mario Caldato Jr., MixingEngineer - Hiatus Kaiyote, Producer, MainArtist, MixingEngineer - Paul Bender, ComposerLyricist - Naomi Saalfield, ComposerLyricist - Simon Mavin, ComposerLyricist - Perrin Moss, ComposerLyricist - Andrei Eremin, MasteringEngineer - Jonathan Maia, MixingEngineer - Niki Yang, MainArtist - Warner Chappell Music/Universal Music Publishing Group (APRA/BMI), MusicPublisher UPC : 5054429192285 MEDIATYPE : album ITUNESADVISORY : 0 URL : https://www.qobuz.com/fr-fr/album/love-heart-cheat-code-hiatus-kaiyote/q0mw78fbrvp4a Audio Format : FLAC Format/Info : Free Lossless Audio Codec Duration : 41 s 440 ms Bit rate mode : Variable Bit rate : 1 593 kb/s Channel(s) : 2 channels Channel layout : L R Sampling rate : 48.0 kHz Bit depth : 24 bits Compression mode : Lossless Stream size : 7.87 MiB (99%) MD5 of the unencoded content : 00000000000000000000000000000000 General Complete name : C:Deemix MusicHiatus KaiyoteLove Heart Cheat CodeFLAC (24bit-44.1kHz)�5 - Everything’s Beautiful.flac Format : FLAC Format/Info : Free Lossless Audio Codec File size : 33.2 MiB Duration : 2 min 50 s Overall bit rate mode : Variable Overall bit rate : 1 632 kb/s Album : Love Heart Cheat Code Album/Performer : Hiatus Kaiyote Part : 1 Part/Total : 1 Track name : Everything’s Beautiful Track name/Position : 5 Track name/Total : 11 Performer : Hiatus Kaiyote Composer : Paul Bender, Naomi Saalfield, Simon Mavin & Perrin Moss Producer : Brainfeeder Label : Brainfeeder Genre : Alternativa & Indie Recorded date : 2024-06-28 ISRC : GBCFB2301029 Copyright : 2024 Brainfeeder 2024 Brainfeeder Cover : Yes Cover type : Cover (front) Cover MIME : image/jpeg PRODUCER : Hiatus Kaiyote INVOLVEDPEOPLE : Mario Caldato Jr., MixingEngineer - Hiatus Kaiyote, Producer, MainArtist, MixingEngineer - Paul Bender, ComposerLyricist - Naomi Saalfield, ComposerLyricist - Simon Mavin, ComposerLyricist - Perrin Moss, ComposerLyricist - Jonathan Maia, MixingEngineer - Warner Chappell Music / Universal Music Publishing Group (APRA/BMI), MusicPublisher UPC : 5054429192285 MEDIATYPE : album ITUNESADVISORY : 0 URL : https://www.qobuz.com/fr-fr/album/love-heart-cheat-code-hiatus-kaiyote/q0mw78fbrvp4a Audio Format : FLAC Format/Info : Free Lossless Audio Codec Duration : 2 min 50 s Bit rate mode : Variable Bit rate : 1 628 kb/s Channel(s) : 2 channels Channel layout : L R Sampling rate : 44.1 kHz Bit depth : 24 bits Compression mode : Lossless Stream size : 33.1 MiB (100%) MD5 of the unencoded content : 00000000000000000000000000000000 General Complete name : C:Deemix MusicHiatus KaiyoteLove Heart Cheat CodeFLAC (24bit-44.1kHz)�6 - Dimitri.flac Format : FLAC Format/Info : Free Lossless Audio Codec File size : 55.2 MiB Duration : 4 min 28 s Overall bit rate mode : Variable Overall bit rate : 1 726 kb/s Album : Love Heart Cheat Code Album/Performer : Hiatus Kaiyote Part : 1 Part/Total : 1 Track name : Dimitri Track name/Position : 6 Track name/Total : 11 Performer : Hiatus Kaiyote Composer : Paul Bender, Naomi Saalfield, Simon Mavin & Perrin Moss Producer : Brainfeeder Label : Brainfeeder Genre : Alternativa & Indie Recorded date : 2024-06-28 ISRC : GBCFB2400123 Copyright : 2024 Brainfeeder 2024 Brainfeeder Cover : Yes Cover type : Cover (front) Cover MIME : image/jpeg PRODUCER : Hiatus Kaiyote INVOLVEDPEOPLE : Mario Caldato Jr., MixingEngineer - Hiatus Kaiyote, Producer, MainArtist, MixingEngineer - Paul Bender, ComposerLyricist - Naomi Saalfield, ComposerLyricist - Simon Mavin, ComposerLyricist - Perrin Moss, ComposerLyricist - Andrei Eremin, MasteringEngineer - Jonathan Maia, MixingEngineer - Warner Chappell Music/Universal Music Publishing Group (APRA/BMI), MusicPublisher UPC : 5054429192285 MEDIATYPE : album ITUNESADVISORY : 0 URL : https://www.qobuz.com/fr-fr/album/love-heart-cheat-code-hiatus-kaiyote/q0mw78fbrvp4a Audio Format : FLAC Format/Info : Free Lossless Audio Codec Duration : 4 min 28 s Bit rate mode : Variable Bit rate : 1 724 kb/s Channel(s) : 2 channels Channel layout : L R Sampling rate : 48.0 kHz Bit depth : 24 bits Compression mode : Lossless Stream size : 55.1 MiB (100%) MD5 of the unencoded content : 00000000000000000000000000000000 General Complete name : C:Deemix MusicHiatus KaiyoteLove Heart Cheat CodeFLAC (24bit-44.1kHz)�7 - Longcat.flac Format : FLAC Format/Info : Free Lossless Audio Codec File size : 20.6 MiB Duration : 1 min 47 s Overall bit rate mode : Variable Overall bit rate : 1 605 kb/s Album : Love Heart Cheat Code Album/Performer : Hiatus Kaiyote Part : 1 Part/Total : 1 Track name : Longcat Track name/Position : 7 Track name/Total : 11 Performer : Hiatus Kaiyote Composer : Paul Bender, Naomi Saalfield, Simon Mavin & Perrin Moss Producer : Brainfeeder Label : Brainfeeder Genre : Alternativa & Indie Recorded date : 2024-06-28 ISRC : GBCFB2400124 Copyright : 2024 Brainfeeder 2024 Brainfeeder Cover : Yes Cover type : Cover (front) Cover MIME : image/jpeg PRODUCER : Hiatus Kaiyote INVOLVEDPEOPLE : Mario Caldato Jr., MixingEngineer - Hiatus Kaiyote, Producer, MainArtist, MixingEngineer - Paul Bender, ComposerLyricist - Naomi Saalfield, ComposerLyricist - Simon Mavin, ComposerLyricist - Perrin Moss, ComposerLyricist - Andrei Eremin, MasteringEngineer - Jonathan Maia, MixingEngineer - Warner Chappell Music/Universal Music Publishing Group (APRA/BMI), MusicPublisher UPC : 5054429192285 MEDIATYPE : album ITUNESADVISORY : 0 URL : https://www.qobuz.com/fr-fr/album/love-heart-cheat-code-hiatus-kaiyote/q0mw78fbrvp4a Audio Format : FLAC Format/Info : Free Lossless Audio Codec Duration : 1 min 47 s Bit rate mode : Variable Bit rate : 1 598 kb/s Channel(s) : 2 channels Channel layout : L R Sampling rate : 48.0 kHz Bit depth : 24 bits Compression mode : Lossless Stream size : 20.5 MiB (100%) MD5 of the unencoded content : 00000000000000000000000000000000 General Complete name : C:Deemix MusicHiatus KaiyoteLove Heart Cheat CodeFLAC (24bit-44.1kHz)�8 - How To Meet Yourself.flac Format : FLAC Format/Info : Free Lossless Audio Codec File size : 38.4 MiB Duration : 3 min 16 s Overall bit rate mode : Variable Overall bit rate : 1 641 kb/s Album : Love Heart Cheat Code Album/Performer : Hiatus Kaiyote Part : 1 Part/Total : 1 Track name : How To Meet Yourself Track name/Position : 8 Track name/Total : 11 Performer : Hiatus Kaiyote Composer : Paul Bender, Naomi Saalfield, Simon Mavin & Perrin Moss Producer : Brainfeeder Label : Brainfeeder Genre : Alternativa & Indie Recorded date : 2024-06-28 ISRC : GBCFB2400125 Copyright : 2024 Brainfeeder 2024 Brainfeeder Cover : Yes Cover type : Cover (front) Cover MIME : image/jpeg PRODUCER : Hiatus Kaiyote INVOLVEDPEOPLE : Mario Caldato Jr., MixingEngineer - Hiatus Kaiyote, Producer, MainArtist, MixingEngineer - Paul Bender, ComposerLyricist - Naomi Saalfield, ComposerLyricist - Simon Mavin, ComposerLyricist - Perrin Moss, ComposerLyricist - Andrei Eremin, MasteringEngineer - Jonathan Maia, MixingEngineer - Warner Chappell Music/Universal Music Publishing Group (APRA/BMI), MusicPublisher UPC : 5054429192285 MEDIATYPE : album ITUNESADVISORY : 0 URL : https://www.qobuz.com/fr-fr/album/love-heart-cheat-code-hiatus-kaiyote/q0mw78fbrvp4a Audio Format : FLAC Format/Info : Free Lossless Audio Codec Duration : 3 min 16 s Bit rate mode : Variable Bit rate : 1 637 kb/s Channel(s) : 2 channels Channel layout : L R Sampling rate : 48.0 kHz Bit depth : 24 bits Compression mode : Lossless Stream size : 38.4 MiB (100%) MD5 of the unencoded content : 00000000000000000000000000000000 General Complete name : C:Deemix MusicHiatus KaiyoteLove Heart Cheat CodeFLAC (24bit-44.1kHz)�9 - Love Heart Cheat Code.flac Format : FLAC Format/Info : Free Lossless Audio Codec File size : 57.1 MiB Duration : 4 min 33 s Overall bit rate mode : Variable Overall bit rate : 1 754 kb/s Album : Love Heart Cheat Code Album/Performer : Hiatus Kaiyote Part : 1 Part/Total : 1 Track name : Love Heart Cheat Code Track name/Position : 9 Track name/Total : 11 Performer : Hiatus Kaiyote Composer : Paul Bender, Naomi Saalfield, Simon Mavin & Perrin Moss Producer : Brainfeeder Label : Brainfeeder Genre : Alternativa & Indie Recorded date : 2024-06-28 ISRC : GBCFB2400126 Copyright : 2024 Brainfeeder 2024 Brainfeeder Cover : Yes Cover type : Cover (front) Cover MIME : image/jpeg PRODUCER : Hiatus Kaiyote INVOLVEDPEOPLE : Mario Caldato Jr., MixingEngineer - Hiatus Kaiyote, Producer, MainArtist, MixingEngineer - Paul Bender, ComposerLyricist - Naomi Saalfield, ComposerLyricist - Simon Mavin, ComposerLyricist - Perrin Moss, ComposerLyricist - Andrei Eremin, MasteringEngineer - Jonathan Maia, MixingEngineer - Warner Chappell Music/Universal Music Publishing Group (APRA/BMI), MusicPublisher UPC : 5054429192285 MEDIATYPE : album ITUNESADVISORY : 0 URL : https://www.qobuz.com/fr-fr/album/love-heart-cheat-code-hiatus-kaiyote/q0mw78fbrvp4a Audio Format : FLAC Format/Info : Free Lossless Audio Codec Duration : 4 min 33 s Bit rate mode : Variable Bit rate : 1 751 kb/s Channel(s) : 2 channels Channel layout : L R Sampling rate : 48.0 kHz Bit depth : 24 bits Compression mode : Lossless Stream size : 57.1 MiB (100%) MD5 of the unencoded content : 00000000000000000000000000000000 General Complete name : C:Deemix MusicHiatus KaiyoteLove Heart Cheat CodeFLAC (24bit-44.1kHz)10 - Cinnamon Temple.flac Format : FLAC Format/Info : Free Lossless Audio Codec File size : 46.3 MiB Duration : 3 min 20 s Overall bit rate mode : Variable Overall bit rate : 1 936 kb/s Album : Love Heart Cheat Code Album/Performer : Hiatus Kaiyote Part : 1 Part/Total : 1 Track name : Cinnamon Temple Track name/Position : 10 Track name/Total : 11 Performer : Hiatus Kaiyote Composer : Paul Bender, Naomi Saalfield, Simon Mavin & Perrin Moss Producer : Brainfeeder Label : Brainfeeder Genre : Alternativa & Indie Recorded date : 2024-06-28 ISRC : GBCFB2400127 Copyright : 2024 Brainfeeder 2024 Brainfeeder Cover : Yes Cover type : Cover (front) Cover MIME : image/jpeg PRODUCER : Hiatus Kaiyote INVOLVEDPEOPLE : Mario Caldato Jr., MixingEngineer - Hiatus Kaiyote, Producer, MainArtist, MixingEngineer - Paul Bender, ComposerLyricist - Naomi Saalfield, ComposerLyricist - Simon Mavin, ComposerLyricist - Perrin Moss, ComposerLyricist - Andrei Eremin, MasteringEngineer - Jonathan Maia, MixingEngineer - Warner Chappell Music/Universal Music Publishing Group (APRA/BMI), MusicPublisher UPC : 5054429192285 MEDIATYPE : album ITUNESADVISORY : 1 URL : https://www.qobuz.com/fr-fr/album/love-heart-cheat-code-hiatus-kaiyote/q0mw78fbrvp4a Audio Format : FLAC Format/Info : Free Lossless Audio Codec Duration : 3 min 20 s Bit rate mode : Variable Bit rate : 1 932 kb/s Channel(s) : 2 channels Channel layout : L R Sampling rate : 48.0 kHz Bit depth : 24 bits Compression mode : Lossless Stream size : 46.2 MiB (100%) MD5 of the unencoded content : 00000000000000000000000000000000 General Complete name : C:Deemix MusicHiatus KaiyoteLove Heart Cheat CodeFLAC (24bit-44.1kHz)11 - White Rabbit.flac Format : FLAC Format/Info : Free Lossless Audio Codec File size : 46.3 MiB Duration : 3 min 33 s Overall bit rate mode : Variable Overall bit rate : 1 814 kb/s Album : Love Heart Cheat Code Album/Performer : Hiatus Kaiyote Part : 1 Part/Total : 1 Track name : White Rabbit Track name/Position : 11 Track name/Total : 11 Performer : Hiatus Kaiyote Composer : Grace Slick Producer : Brainfeeder Label : Brainfeeder Genre : Alternativa & Indie Recorded date : 2024-06-28 ISRC : GBCFB2400128 Copyright : 2024 Brainfeeder 2024 Brainfeeder Cover : Yes Cover type : Cover (front) Cover MIME : image/jpeg PRODUCER : Hiatus Kaiyote INVOLVEDPEOPLE : Grace Slick, ComposerLyricist - Mario Caldato Jr., MixingEngineer - Hiatus Kaiyote, Producer, MainArtist, MixingEngineer - Andrei Eremin, MasteringEngineer - Jonathan Maia, MixingEngineer - Wixen Music Publishing obo Mole Music, MusicPublisher UPC : 5054429192285 MEDIATYPE : album ITUNESADVISORY : 0 URL : https://www.qobuz.com/fr-fr/album/love-heart-cheat-code-hiatus-kaiyote/q0mw78fbrvp4a Audio Format : FLAC Format/Info : Free Lossless Audio Codec Duration : 3 min 33 s Bit rate mode : Variable Bit rate : 1 811 kb/s Channel(s) : 2 channels Channel layout : L R Sampling rate : 48.0 kHz Bit depth : 24 bits Compression mode : Lossless Stream size : 46.2 MiB (100%) MD5 of the unencoded content : 00000000000000000000000000000000 General Complete name : C:Deemix MusicHiatus KaiyoteLove Heart Cheat CodeFLAC (24bit-44.1kHz)Cover.jpg Format : JPEG File size : 4.64 MiB Image Format : JPEG Width : 6 000 pixels Height : 6 000 pixels Color space : YUV Chroma subsampling : 4:4:4 Bit depth : 8 bits Compression mode : Lossy Stream size : 4.64 MiB (100%) ColorSpace_ICC : RGB General Complete name : C:Deemix MusicHiatus KaiyoteLove Heart Cheat CodeFLAC (24bit-44.1kHz)Hiatus Kaiyote.jpg Format : JPEG File size : 223 KiB Image Format : JPEG Width : 1 200 pixels Height : 1 200 pixels Color space : YUV Chroma subsampling : 4:4:4 Bit depth : 8 bits Compression mode : Lossy Stream size : 223 KiB (100%)

Всего файлов в раздаче: 13 
01 - Dreamboat.flac26.13 MB
02 - Telescope.flac57.97 MB
03 - Make Friends.flac60.27 MB
04 - BMO is Beautiful.flac7.96 MB
05 - Everything’s Beautiful.flac33.17 MB
06 - Dimitri.flac55.22 MB
07 - Longcat.flac20.63 MB
08 - How To Meet Yourself.flac38.45 MB
09 - Love Heart Cheat Code.flac57.14 MB
10 - Cinnamon Temple.flac46.31 MB
Показать все файлы

Комментарии


Зарегистрируйтесь чтобы добавить комментарий
Торрент клиент
byTorrent - программа для загрузки торрент-файлов.

Скачать byTorrent.exe (1,5 МБ)

Скачать byTorrent.zip (0,6 МБ)

Поддержи torrent.by
российских рублей
(300 российских рублей это 4$)

Обратная связь rss

End game ©