↑↓torrent.by
Поиск
Логин:  Регистрация
Пароль:

Презумпция невиновности / Presumed Innocent [01x01-04 из 08] (2024) WEB-DL 1080p | P | Red Head Sound

download Скачать торрент-файл   magnet Магнитная ссылка Размер: 12.52 GB Добавлен: 2024-06-30 05:00
Пиры будут получены из сети DHT
Последний сидер был замечен 2024-07-01 15:21
Название: Презумпция невиновности Оригинальное название: Presumed Innocent Год выхода: 2024 Жанр: Драма, криминал, детектив Режиссер: Грег Яйтанс, Анне Севитски В ролях: Джейк Джилленхол, Рут Негга, Билл Кэмп, Ренате Реинсве, Питер Сарсгаард, Кингстон Руми Сауфвик, Элизабет Марвел, Нома Думезвени и др. Описание сериала: Расти Сабич работает окружным прокурором в Чикаго. Несмотря на то, что у него есть жена, мужчина заводит тайный роман со своей коллегой, Каролин Полхемус. Его жизнь переворачивается с ног на голову, когда в прокуратуру поступает дело об ужасающем убийстве Каролин, и Расти поручают его расследование. Пытаясь сохранить в тайне специфику своих отношений с жертвой, чтобы спасти свой брак, Расти только усугубляет положение и вскоре становится главным подозреваемым в убийстве. Страна: США Студия: Apple Studios, Bad Robot, David E. Kelley Productions Продолжительность: ~0:45:00 Перевод: Профессиональный (многоголосый, закадровый) Red Head Sound Файл Формат: MKV Качество: WEB-DL (1080p) Видео: 1920x960 (2,000), 23,976 fps, AVC (х264), High@L4, ~10,0 Mbps avg, 0.227 bit/pixel Аудио RUS: 48 kHz, AC3, 2/0 (L, R) ch, ~192 kbps avg
[+] MediaInfoОбщее Уникальный идентификатор : 169677385968197363219489947920880007987 (0x7FA6AD04A581FF6847A681C30AEA7B33) Полное имя : Presumed.Innocent.2024.S01E01.WEB-DL.1080p.ATVP.RHS.mkv Формат : Matroska Версия формата : Version 4 Размер файла : 3,27 Гбайт Продолжительность : 45 мин. 51 с. Общий битрейт : 10,2 Мбит/сек Частота кадров : 23,976 кадра/сек Дата кодирования : 2024-06-16 08:37:20 UTC Программа кодирования : mkvmerge v68.0.0 ('The Curtain') 64-bit Библиотека кодирования : libebml v1.4.2 + libmatroska v1.6.4 Видео Идентификатор : 1 Формат : AVC Формат/Информация : Advanced Video Codec Профиль формата : High@L4 Настройки формата : CABAC / 4 Ref Frames Параметр CABAC формата : Да Параметр RefFrames формата : 4 кадра Параметр формата, количество фрагментов : 8 фрагментов на кадр Идентификатор кодека : V_MPEG4/ISO/AVC Продолжительность : 45 мин. 51 с. Битрейт : 10,0 Мбит/сек Ширина : 1 920 пикселей Высота : 960 пикселей Соотношение сторон дисплея : 2,000 Режим частоты кадров : Постоянный Частота кадров : 23,976 (24000/1001) кадра/сек Цветовое пространство : YUV Цветовая субдискретизация : 4:2:0 Битовая глубина : 8 бит Тип развёртки : Прогрессивная Бит/(Пиксели*Кадры) : 0.227 Размер потока : 3,21 Гбайт (98%) По умолчанию : Да Принудительно : Нет Цветовой диапазон : Limited Основные цвета : BT.709 Характеристики трансфера : BT.709 Коэффициенты матрицы : BT.709 Аудио Идентификатор : 2 Формат : AC-3 Формат/Информация : Audio Coding 3 Коммерческое название : Dolby Digital Идентификатор кодека : A_AC3 Продолжительность : 45 мин. 51 с. Вид битрейта : Постоянный Битрейт : 192 Кбит/сек Канал(-ы) : 2 канала Расположение каналов : L R Частота дискретизации : 48,0 КГц Частота кадров : 31,250 кадров/сек (1536 SPF) Метод сжатия : С потерями Размер потока : 63,0 Мбайт (2%) Язык : Русский По умолчанию : Да Принудительно : Нет Нормализация звука речи : -31 dB dialnorm_Average : -31 dB dialnorm_Minimum : -31 dB dialnorm_Maximum : -31 dB
[+] Скриншоты

Всего файлов в раздаче: 4 
Presumed.Innocent.2024.S01E01.WEB-DL.1080p.ATVP.RHS.mkv3.27 GB
Presumed.Innocent.2024.S01E02.WEB-DL.1080p.ATVP.RHS.mkv3.11 GB
Presumed.Innocent.2024.S01E03.WEB-DL.1080p.ATVP.RHS.mkv3.05 GB
Presumed.Innocent.2024.S01E04.WEB-DL.1080p.ATVP.RHS.mkv3.10 GB

Похожие раздачи по запросу - Презумпция
Вчера magnet Презумпция невиновности / Presumed Innocent [01x01-07 из 08] (2024) WEB-DL 1080p | P | Red Head Sound 21.49 GB ↑ 0 ↓ 7
2024-07-19 magnet Презумпция невиновности / Presumed Innocent [01x01-06 из 08] (2024) WEB-DL 1080p | P | Red Head Sound 18.46 GB ↑ 0 ↓ 0
2024-07-18 magnet Презумпция невиновности / Presumed Innocent [01x01-06 из 08] (2024) WEB-DL 1080p от NewComers | P 20.65 GB ↑ 0 ↓ 0
2024-07-18 magnet Презумпция невиновности / Presumed Innocent [01х01-07 из 08] (2024) WEBRip 1080p | ViruseProject 10.39 GB ↑ 0 ↓ 0
2024-07-18 magnet Презумпция невиновности / Presumed Innocent [01х01-07 из 08] (2024) WEBRip | ViruseProject 3.49 GB ↑ 0 ↓ 0
2024-07-16 magnet Презумпция невиновности / Presumed Innocent [01х01-06 из 08] (2024) WEB-DLRip 720p от DoMiNo & селезень | HDrezka Studio 4.80 GB ↑ 0 ↓ 13
2024-07-11 magnet Презумпция невиновности / Presumed Innocent [01х01-06 из 08] (2024) WEBRip | ViruseProject 3.01 GB ↑ 0 ↓ 0

Комментарии


Зарегистрируйтесь чтобы добавить комментарий
Торрент клиент
byTorrent - программа для загрузки торрент-файлов.

Скачать byTorrent.exe (1,5 МБ)

Скачать byTorrent.zip (0,6 МБ)

Поддержи torrent.by
российских рублей
(300 российских рублей это 4$)

Обратная связь rss

End game ©