↑↓torrent.by
Поиск
Логин:  Регистрация
Пароль:

Папа / Ezra (2023) WEB-DLRip от DoMiNo & селезень | P | HDRezka Studio

download Скачать торрент-файл   magnet Магнитная ссылка Размер: 1.47 GB Добавлен: 2024-06-30 05:00
Пиры будут получены из сети DHT
Последний сидер был замечен 2024-07-12 20:57
Информация о фильме Название: Папа Оригинальное название: Ezra Год выпуска: 2023 Жанр: драма, комедия Режиссер: Тони Голдуин / Tony Goldwyn В ролях: Бобби Каннавале, Роберт Де Ниро, Уильям А. Фицджералд, Вера Фармига, Вупи Голдберг, Роуз Бирн, Рэйн Уилсон, Тони Голдуин, Джеффри Оуэнс, Алекс Планк О фильме: У стендап-комика Макса не все ладится в жизни: в карьере нет больших успехов, жена планирует развод, поэтому ему пришлось переехать жить к пожилому отцу, который считает его неудачником. Но Макс очень хочет стать хорошим папой для своего 11-летнего сына-аутиста Эзры. Когда Эзру в очередной раз исключают из школы, Макс решает взять его с собой в путешествие через всю страну, чтобы вместе пережить удивительные приключения и наконец научиться понимать друг друга. Выпущено: США, Closer Media, Wayfarer Studios Продолжительность: 01:41:20 Перевод: Профессиональный (многоголосый, закадровый) | HDRezka Studio Субтитры: Русские (Forced - хардсаб) Файл Формат: AVI Качество: WEB-DLRip Видео: 704x352 at 23.976 fps, XviD 69, ~1674 kbps Аудио 1: AC3, 2 ch, ~192 kbps - | Русский | | HDRezka Studio Аудио 2: AC3, 2 ch, ~192 kbps - | Русский | | HDRezka Studio 18+ Формат субтитров: хардсаб
[+] M/IGeneral Complete name : S:Ezra.2023.MVO.AMZN.WEB-DLRip.seleZen.avi Format : AVI Format/Info : Audio Video Interleave Format settings : BitmapInfoHeader / WaveFormatEx File size : 1.47 GiB Duration : 1 h 41 min Overall bit rate : 2 072 kb/s Frame rate : 23.976 FPS Movie name : Ezra.2023.MVO.AMZN.WEB-DLRip.seleZen Writing application : VirtualDubModRus 1.5.10.2 (build 2542/release) Writing library : VirtualDubMod build 2542/release Copyright : -=DoMiNo=- Video ID : 0 Format : MPEG-4 Visual Format profile : Advanced Simple@L5 Format settings : BVOP1 / Custom Matrix Format settings, BVOP : 1 Format settings, QPel : No Format settings, GMC : No warppoints Format settings, Matrix : Custom Codec ID : XVID Codec ID/Hint : XviD Duration : 1 h 41 min Bit rate : 1 674 kb/s Width : 704 pixels Height : 352 pixels Display aspect ratio : 2.000 Frame rate : 23.976 (24000/1001) FPS Color space : YUV Chroma subsampling : 4:2:0 Bit depth : 8 bits Scan type : Progressive Compression mode : Lossy Bits/(Pixel*Frame) : 0.282 Stream size : 1.18 GiB (81%) Writing library : XviD 69 Audio #1 ID : 1 Format : AC-3 Format/Info : Audio Coding 3 Commercial name : Dolby Digital Codec ID : 2000 Duration : 1 h 41 min Bit rate mode : Constant Bit rate : 192 kb/s Channel(s) : 2 channels Channel layout : L R Sampling rate : 48.0 kHz Frame rate : 31.250 FPS (1536 SPF) Compression mode : Lossy Stream size : 139 MiB (9%) Alignment : Split across interleaves Interleave, duration : 42 ms (1.00 video frame) Interleave, preload duratio : 500 ms Service kind : Complete Main Dialog Normalization : -31 dB dialnorm_Average : -31 dB dialnorm_Minimum : -31 dB dialnorm_Maximum : -31 dB Audio #2 ID : 2 Format : AC-3 Format/Info : Audio Coding 3 Commercial name : Dolby Digital Codec ID : 2000 Duration : 1 h 41 min Bit rate mode : Constant Bit rate : 192 kb/s Channel(s) : 2 channels Channel layout : L R Sampling rate : 48.0 kHz Frame rate : 31.250 FPS (1536 SPF) Compression mode : Lossy Stream size : 139 MiB (9%) Alignment : Split across interleaves Interleave, duration : 42 ms (1.00 video frame) Interleave, preload duratio : 500 ms Service kind : Complete Main Dialog Normalization : -31 dB dialnorm_Average : -31 dB dialnorm_Minimum : -31 dB dialnorm_Maximum : -31 dB
Релиз: Присоединяйся к: Кликай на баннеры.

Всего файлов в раздаче: 1 
Ezra.2023.MVO.AMZN.WEB-DLRip.seleZen.avi1.47 GB

Похожие раздачи по запросу - Папа
2024-06-29 magnet Папа / Ezra (2023) WEB-DLRip от New-Team | P | HDRezka Studio 1.47 GB ↑ 0 ↓ 0
2024-06-29 magnet Папа / Ezra (2023) WEB-DL 1080p от New-Team | P | HDRezka Studio 6.64 GB ↑ 0 ↓ 1
2024-06-29 magnet Папа / Ezra (2023) WEB-DL 720p от селезень | P | HDRezka Studio 3.03 GB ↑ 0 ↓ 0
2024-06-29 magnet Папа / Ezra (2023) WEB-DLRip-AVC | P 2.00 GB ↑ 3 ↓ 1
2023-10-28 magnet Папа из спецназа / The Retirement Plan (2023) BDRip 720p от селезень | D 3.88 GB ↑ 0 ↓ 0

Комментарии


Зарегистрируйтесь чтобы добавить комментарий
Торрент клиент
byTorrent - программа для загрузки торрент-файлов.

Скачать byTorrent.exe (1,5 МБ)

Скачать byTorrent.zip (0,6 МБ)

Поддержи torrent.by
российских рублей
(300 российских рублей это 4$)

Обратная связь rss

End game ©