↑↓torrent.by
Поиск
Логин:  Регистрация
Пароль:

Цементный сад / The Cement Garden (1993) WEB-DLRip-AVC | A

download Скачать торрент-файл   magnet Магнитная ссылка Размер: 1.64 GB Добавлен: 2024-06-30 05:00
Пиры будут получены из сети DHT
Последний сидер был замечен 2024-07-01 21:07
Цементный сад Информация о фильме Год релиза: 1993 Выпущено: Германия, Великобритания, Франция Жанр: Драма Режиссер: Эндрю Биркин В ролях: Эндрю Робертсон, Шарлотта Гинзбур, Элис Култхард, Нед Биркин /, Шинейд Кьюсак, Ханнс Зишлер, Йохен Хорст О фильме: После смерти своего мужа, мать Жюли, Джека, Тома и Сью начинает страдать от странной болезни. Опасаясь, что она скоро попадёт в больницу, женщина открывает банковский счёт для своих детей, который помог бы им избежать принудительной опеки со стороны властей. Вскоре она умирает. Четверо детей остались сиротами. Старшие из них, подростки Жюли и Джек, решают держать смерть родителей в секрете, чтобы не попасть в приют, или интернат и не быть в разлуке с младшими. Однако в доме и в душах его обитателей вскоре начинает царить полная анархия. Тому кажется, что он девочка, рожденная в мужском теле. Сью перестает разговаривать и целыми днями пишет что-то в дневнике. Джек прячется по углам, играя в пять против одного, а Жюли пользуется этим, совращая собственного брата. Соседи ничего не подозревают, пока не появляется Дерек, парень которому нравится Жюли. Продолжительность: 01:41:12 Перевод: Авторский (одноголосый закадровый) Петр Карцев Субтитры: нет Качество видео: WEB-DLRip-AVC Формат видео: MKV Видео: MPEG4 Video (H264) 976x584 25fps Bit rate 1 935 kb/s Аудио 1: Dolby AC3 48000Hz 2 ch (mono) 192kbps Аудио 2: Dolby AC3 48000Hz 2 ch 192kbps Реклама: Отсутствует
[+] MediaInfo Цементный сад (The Cement Garden) WEB-DL-AVC .mkv Format : Matroska Format version : Version 4 File size : 1.64 GiB Duration : 1 h 41 min Overall bit rate : 2 321 kb/s Frame rate : 25.000 FPS Encoded date : 2024-06-26 13:48:14 UTC Writing application : mkvmerge v71.0.0 ('Altitude') 64-bit Writing library : libebml v1.4.4 + libmatroska v1.7.1 Video ID : 1 Format : AVC Format/Info : Advanced Video Codec Format profile : High@L4.1 Format settings : CABAC / 16 Ref Frames Format settings, CABAC : Yes Format settings, Reference : 16 frames Codec ID : V_MPEG4/ISO/AVC Duration : 1 h 41 min Bit rate : 1 935 kb/s Width : 976 pixels Height : 584 pixels Display aspect ratio : 5:3 Frame rate mode : Constant Frame rate : 25.000 FPS Color space : YUV Chroma subsampling : 4:2:0 Bit depth : 8 bits Scan type : Progressive Bits/(Pixel*Frame) : 0.136 Stream size : 1.37 GiB (83%) Writing library : x264 core 164 r3164 c196240 Encoding settings : cabac=1 / ref=16 / deblock=1:-3:-3 / analyse=0x3:0x133 / me=umh / subme=9 / psy=1 / psy_rd=1.00:0.00 / mixed_ref=1 / me_range=32 / chroma_me=1 / trellis=2 / 8x8dct=1 / cqm=0 / deadzone=21,11 / fast_pskip=1 / chroma_qp_offset=-2 / threads=18 / lookahead_threads=4 / sliced_threads=0 / nr=0 / decimate=1 / interlaced=0 / bluray_compat=0 / constrained_intra=0 / bframes=10 / b_pyramid=0 / b_adapt=2 / b_bias=0 / direct=3 / weightb=1 / open_gop=0 / weightp=2 / keyint=250 / keyint_min=25 / scenecut=40 / intra_refresh=0 / rc=crf / mbtree=0 / crf=20.0 / qcomp=0.60 / qpmin=0 / qpmax=69 / qpstep=4 / ip_ratio=1.40 / pb_ratio=1.30 / aq=1:1.00 Default : Yes Forced : No Audio #1 ID : 2 Format : AC-3 Format/Info : Audio Coding 3 Commercial name : Dolby Digital Codec ID : A_AC3 Duration : 1 h 41 min Bit rate mode : Constant Bit rate : 192 kb/s Channel(s) : 2 channels Channel layout : L R Sampling rate : 48.0 kHz Frame rate : 31.250 FPS (1536 SPF) Compression mode : Lossy Stream size : 139 MiB (8%) Language : Russian Service kind : Complete Main Default : Yes Forced : No Audio #2 ID : 3 Format : AC-3 Format/Info : Audio Coding 3 Commercial name : Dolby Digital Codec ID : A_AC3 Duration : 1 h 41 min Bit rate mode : Constant Bit rate : 192 kb/s Channel(s) : 2 channels Channel layout : L R Sampling rate : 48.0 kHz Frame rate : 31.250 FPS (1536 SPF) Compression mode : Lossy Stream size : 139 MiB (8%) Language : English Service kind : Complete Main Default : No Forced : No
[+] Скриншоты

Всего файлов в раздаче: 1 
Цементный сад (The Cement Garden) WEB-DL-AVC [by ale_x2008].mkv1.64 GB

Комментарии


Зарегистрируйтесь чтобы добавить комментарий
Торрент клиент
byTorrent - программа для загрузки торрент-файлов.

Скачать byTorrent.exe (1,5 МБ)

Скачать byTorrent.zip (0,6 МБ)

Поддержи torrent.by
российских рублей
(300 российских рублей это 4$)

Обратная связь rss

End game ©