↑↓torrent.by
Поиск
Логин:  Регистрация
Пароль:

Чайна О'Брайен / China O'Brien (1988) BDRip-HEVC 1080p от RIPS CLUB | A | GBR Transfer

download Скачать торрент-файл   magnet Магнитная ссылка Размер: 11.96 GB Добавлен: 2024-06-30 05:00
Пиры будут получены из сети DHT
Последний сидер был замечен 2024-06-30 16:48
Название: Чайна О'Брайен Оригинальное название: China O'Brien Год производства: 1988 Премьера в мире: 26 марта 1990 Производство: США, Китай, Гонконг / Fred Weintraub Productions, GH Pictures, Golden Harvest Company Ltd., Golden Harvest Pictures (China), Pan Pacific Productions Жанр: боевик, драма, криминал, спорт Режиссёр: Роберт Клауз В ролях: Синтия Ротрок, Ричард Нортон, Кит Кук, Даг Райт, Найджел, Артуро Ривера, Скотт МакМиллан, Патрик Адамсон, Дэвид Блэкуэлл, Чад Уолкер О фильме: После инцидента с применением огнестрельного оружия, Чайна О'Брайен оставляет службу в полиции и возвращается в свой родной провинциальный городок Бивер-Крик. Однако, за время её отсутствия город сильно изменился. Шериф Джон О'Брайен уже не в силах справиться с местными преступными воротилами - коррупция проникла как в полицию, так и в систему судопроизводства. Несговорчивого шерифа вместе с его помощником устраняют, и тогда Чайна решает встать на место отца и очистить город от криминала. На помощь к ней приходят друг детства Мэтт Конрой, а также индеец Дакота, у которого есть личные счёты к главе преступного сообщества. Продолжительность: 01:30:33 Перевод: авторский Качество: BDRip-HEVC 1080p Кодек: HEVC (x265) Видео: 1920x1040, ~16.5 Mbps, HEVC (Main10@L.4.1@High) 10 бит Звук: Аудио1: AC3, 2 ch, 640 Kbps - Русский, AVO (Сергей Визгунов) Аудио2: AC3, 2 ch, 384 Kbps - Русский, AVO (Неизвестная переводчица "Дама №3", "Action studio", Ленинград) Аудио3: AC3, 2 ch, 256 Kbps - Русский, AVO ("Ужастик" / "Сержантов") Аудио4: AC3, 2 ch, 256 Kbps - Русский, AVO (Владимир Козлов / "Петербуржец") Аудио5: AC3, 2 ch, 192 Kbps - Русский, AVO (Василий Горчаков) Аудио6: AC3, 2 ch, 640 Kbps - Английский Субтитры: английские (SDH) Навигация по главам: Есть
[+] Лог (x265 info) + Mediainfo x265 : frame I: 551, Avg QP:18.23 kb/s: 31582.09 x265 : frame P: 23062, Avg QP:19.48 kb/s: 24861.35 x265 : frame B: 106670, Avg QP:21.54 kb/s: 14651.40 x265 : Weighted P-Frames: Y:7.4% UV:6.2% x265 : Weighted B-Frames: Y:5.4% UV:4.5% x265 : encoded 130283 frames in 123857.72s (1.05 fps), 16530.32 kb/s, Avg QP:21.16 Общее Уникальный идентификатор : 147414519076887998115710474227835332245 (0x6EE700EF632E32B455A3A45350DDE695) Полное имя : .Чайна.О'Брайен.China.O'Brien.1990.GBR.Transfer.BDRip-HEVC.1080p.mkv Формат : Matroska Версия формата : Version 4 Размер файла : 12,0 Гбайт Продолжительность : 1 ч. 30 мин. Общий битрейт : 18,9 Мбит/сек Частота кадров : 23,976 кадра/сек Название фильма : Чайна О'Брайен Кодирование выполнил : OldGamer Тип содержимого : Movie Дата выпуска : 1990-02-01 Дата записи : 1990-02-01 Дата кодирования : 2024-06-27 16:58:07 UTC Программа кодирования : mkvmerge v85.0 ('Shame For You') 64-bit Библиотека кодирования : libebml v1.4.5 + libmatroska v1.7.1 / xvid4psp5 Обложка : Yes Attachments : cover.jpg ACTOR : Cynthia Rothrock, Richard Norton, Keith Cooke, Doug Wright , Nijel, Arturo Rivera, Scott McMillan, Patrick Adamson, David Blackwell, Chad Walker, Stanton Davis, Robert Tiller, Lainie Watts, Toshishiro Obata, Will C. Hazlett ARTIST : Cynthia Rothrock, Richard Norton, Keith Cooke, Doug Wright , Nijel, Arturo Rivera, Scott McMillan, Patrick Adamson, David Blackwell, Chad Walker, Stanton Davis, Robert Tiller, Lainie Watts, Toshishiro Obata, Will C. Hazlett DIRECTOR : Robert Clouse GENRE : боевик, триллер PRODUCER : Fred Weintraub, Sandra Weintraub, Robert Clouse PRODUCTION_STUDIO : Pan Pacific Productions SCREENPLAY_BY : Robert Clouse SYNOPSIS : Чайна О`Брайен, женщина-полицейский возвращается в городок, где она выросла, к своему отцу. Мирный городок, который она знала, теперь отбивается от преступных банд. Когда её отца-шерифа убивают, Чайна решает занять его место и очистить город. В результате вспыхнула серия противостояний, которая решит, кто будет управлять городом. WRITTEN_BY : Robert Clouse Видео Идентификатор : 1 Формат : HEVC Формат/Информация : High Efficiency Video Coding Профиль формата : Main 10@L4.1@High Идентификатор кодека : V_MPEGH/ISO/HEVC Продолжительность : 1 ч. 30 мин. Битрейт : 16,5 Мбит/сек Ширина : 1 920 пикселей Высота : 1 040 пикселей Соотношение сторон дисплея : 1,85:1 Режим частоты кадров : Постоянный Частота кадров : 23,976 (24000/1001) кадра/сек Цветовое пространство : YUV Цветовая субдискретизация : 4:2:0 Битовая глубина : 10 бит Бит/(Пиксели*Кадры) : 0.345 Размер потока : 10,5 Гбайт (87%) Заголовок : China O'Brien / Rip by OldGamer Библиотека кодирования : x265 3.6+12-f3c5fbaff: 10bit Параметры библиотеки кодирования : cpuid=1111039 / frame-threads=4 / numa-pools=16 / wpp / no-pmode / no-pme / no-psnr / no-ssim / log-level=2 / input-csp=1 / input-res=1920x1040 / interlace=0 / total-frames=130283 / level-idc=41 / high-tier=1 / uhd-bd=0 / ref=5 / no-allow-non-conformance / no-repeat-headers / annexb / no-aud / no-eob / no-eos / no-hrd / info / hash=0 / temporal-layers=0 / open-gop / min-keyint=23 / keyint=240 / gop-lookahead=0 / bframes=16 / b-adapt=2 / b-pyramid / bframe-bias=0 / rc-lookahead=40 / lookahead-slices=0 / scenecut=40 / no-hist-scenecut / radl=0 / no-splice / no-intra-refresh / ctu=32 / min-cu-size=8 / rect / amp / max-tu-size=32 / tu-inter-depth=4 / tu-intra-depth=4 / limit-tu=1 / rdoq-level=2 / dynamic-rd=0.00 / no-ssim-rd / signhide / no-tskip / nr-intra=0 / nr-inter=0 / no-constrained-intra / no-strong-intra-smoothing / max-merge=5 / limit-refs=3 / no-limit-modes / me=3 / subme=7 / merange=57 / temporal-mvp / no-frame-dup / no-hme / weightp / weightb / no-analyze-src-pics / deblock=-2:-2 / no-sao / no-sao-non-deblock / rd=6 / selective-sao=0 / no-early-skip / no-rskip / no-fast-intra / no-tskip-fast / no-cu-lossless / b-intra / no-splitrd-skip / rdpenalty=0 / psy-rd=2.00 / psy-rdoq=1.00 / no-rd-refine / no-lossless / cbqpoffs=0 / crqpoffs=0 / rc=crf / crf=19.5 / qcomp=0.60 / qpstep=4 / stats-write=0 / stats-read=0 / vbv-maxrate=50000 / vbv-bufsize=50000 / vbv-init=0.9 / min-vbv-fullness=50.0 / max-vbv-fullness=80.0 / crf-max=0.0 / crf-min=0.0 / ipratio=1.40 / pbratio=1.30 / aq-mode=1 / aq-strength=1.00 / no-cutree / zone-count=1 / zones: / start-frame=126730 / end-frame=130283 / qp=36 / no-strict-cbr / qg-size=32 / no-rc-grain / qpmax=69 / qpmin=0 / no-const-vbv / sar=1 / overscan=0 / videoformat=5 / range=0 / colorprim=2 / transfer=2 / colormatrix=2 / chromaloc=0 / display-window=0 / cll=0,0 / min-luma=0 / max-luma=1023 / log2-max-poc-lsb=8 / vui-timing-info / vui-hrd-info / slices=1 / no-opt-qp-pps / no-opt-ref-list-length-pps / no-multi-pass-opt-rps / scenecut-bias=0.00 / no-opt-cu-delta-qp / no-aq-motion / no-hdr10 / no-hdr10-opt / no-dhdr10-opt / no-idr-recovery-sei / analysis-reuse-level=0 / analysis-save-reuse-level=0 / analysis-load-reuse-level=0 / scale-factor=0 / refine-intra=0 / refine-inter=0 / refine-mv=1 / refine-ctu-distortion=0 / no-limit-sao / ctu-info=0 / no-lowpass-dct / refine-analysis-type=0 / copy-pic=1 / max-ausize-factor=1.0 / no-dynamic-refine / no-single-sei / no-hevc-aq / no-svt / no-field / qp-adaptation-range=1.00 / scenecut-aware-qp=0conformance-window-offsets / right=0 / bottom=0 / decoder-max-rate=0 / no-vbv-live-multi-pass / no-mcstf / no-sbrc Язык : Английский По умолчанию : Да Принудительно : Нет Аудио #1 Идентификатор : 2 Формат : AC-3 Формат/Информация : Audio Coding 3 Коммерческое название : Dolby Digital Идентификатор кодека : A_AC3 Продолжительность : 1 ч. 30 мин. Вид битрейта : Постоянный Битрейт : 640 Кбит/сек Канал(-ы) : 2 канала Расположение каналов : L R Частота дискретизации : 48,0 КГц Частота кадров : 31,250 кадров/сек (1536 SPF) Метод сжатия : С потерями Размер потока : 415 Мбайт (3%) Заголовок : AVO (Сергей Визгунов) Язык : Русский Вид сервиса : Complete Main По умолчанию : Да Принудительно : Нет Нормализация звука речи : -27 dB compr : -0.28 dB dynrng : -8.70 dB dsurmod : Not Dolby Surround encoded mixlevel : 285 dB roomtyp : Small dialnorm_Average : -27 dB dialnorm_Minimum : -27 dB dialnorm_Maximum : -27 dB Аудио #2 Идентификатор : 3 Формат : AC-3 Формат/Информация : Audio Coding 3 Коммерческое название : Dolby Digital Идентификатор кодека : A_AC3 Продолжительность : 1 ч. 30 мин. Вид битрейта : Постоянный Битрейт : 384 Кбит/сек Канал(-ы) : 2 канала Расположение каналов : L R Частота дискретизации : 48,0 КГц Частота кадров : 31,250 кадров/сек (1536 SPF) Метод сжатия : С потерями Размер потока : 249 Мбайт (2%) Заголовок : AVO (Неизвестная переводчица "Дама №3", "Action studio", Ленинград) Язык : Русский Вид сервиса : Complete Main По умолчанию : Нет Принудительно : Нет Нормализация звука речи : -31 dB compr : -0.28 dB dsurmod : Not Dolby Surround encoded ltrtcmixlev : 3.0 dB ltrtsurmixlev : 3.0 dB lorocmixlev : 3.0 dB lorosurmixlev : 3.0 dB dialnorm_Average : -31 dB dialnorm_Minimum : -31 dB dialnorm_Maximum : -31 dB Аудио #3 Идентификатор : 4 Формат : AC-3 Формат/Информация : Audio Coding 3 Коммерческое название : Dolby Digital Идентификатор кодека : A_AC3 Продолжительность : 1 ч. 30 мин. Вид битрейта : Постоянный Битрейт : 256 Кбит/сек Канал(-ы) : 2 канала Расположение каналов : L R Частота дискретизации : 48,0 КГц Частота кадров : 31,250 кадров/сек (1536 SPF) Метод сжатия : С потерями Размер потока : 166 Мбайт (1%) Заголовок : AVO ("Ужастик" / "Сержантов") Язык : Русский Вид сервиса : Complete Main По умолчанию : Нет Принудительно : Нет Нормализация звука речи : -31 dB compr : -0.28 dB dsurmod : Not Dolby Surround encoded ltrtcmixlev : 3.0 dB ltrtsurmixlev : 3.0 dB lorocmixlev : 3.0 dB lorosurmixlev : 3.0 dB dialnorm_Average : -31 dB dialnorm_Minimum : -31 dB dialnorm_Maximum : -31 dB Аудио #4 Идентификатор : 5 Формат : AC-3 Формат/Информация : Audio Coding 3 Коммерческое название : Dolby Digital Идентификатор кодека : A_AC3 Продолжительность : 1 ч. 30 мин. Вид битрейта : Постоянный Битрейт : 256 Кбит/сек Канал(-ы) : 2 канала Расположение каналов : L R Частота дискретизации : 48,0 КГц Частота кадров : 31,250 кадров/сек (1536 SPF) Метод сжатия : С потерями Размер потока : 166 Мбайт (1%) Заголовок : AVO (Владимир Козлов / "Петербуржец") Язык : Русский Вид сервиса : Complete Main По умолчанию : Нет Принудительно : Нет Нормализация звука речи : -31 dB compr : -0.28 dB dsurmod : Not Dolby Surround encoded ltrtcmixlev : 3.0 dB ltrtsurmixlev : 3.0 dB lorocmixlev : 3.0 dB lorosurmixlev : 3.0 dB dialnorm_Average : -31 dB dialnorm_Minimum : -31 dB dialnorm_Maximum : -31 dB Аудио #5 Идентификатор : 6 Формат : AC-3 Формат/Информация : Audio Coding 3 Коммерческое название : Dolby Digital Идентификатор кодека : A_AC3 Продолжительность : 1 ч. 30 мин. Вид битрейта : Постоянный Битрейт : 192 Кбит/сек Канал(-ы) : 2 канала Расположение каналов : L R Частота дискретизации : 48,0 КГц Частота кадров : 31,250 кадров/сек (1536 SPF) Метод сжатия : С потерями Размер потока : 124 Мбайт (1%) Заголовок : AVO (Василий Горчаков) Язык : Русский Вид сервиса : Complete Main По умолчанию : Нет Принудительно : Нет Нормализация звука речи : -31 dB compr : -0.28 dB dsurmod : Not Dolby Surround encoded ltrtcmixlev : 3.0 dB ltrtsurmixlev : 3.0 dB lorocmixlev : 3.0 dB lorosurmixlev : 3.0 dB dialnorm_Average : -31 dB dialnorm_Minimum : -31 dB dialnorm_Maximum : -31 dB Аудио #6 Идентификатор : 7 Формат : AC-3 Формат/Информация : Audio Coding 3 Коммерческое название : Dolby Digital Идентификатор кодека : A_AC3 Продолжительность : 1 ч. 30 мин. Вид битрейта : Постоянный Битрейт : 640 Кбит/сек Канал(-ы) : 2 канала Расположение каналов : L R Частота дискретизации : 48,0 КГц Частота кадров : 31,250 кадров/сек (1536 SPF) Метод сжатия : С потерями Размер потока : 415 Мбайт (3%) Язык : Английский Вид сервиса : Complete Main По умолчанию : Нет Принудительно : Нет Нормализация звука речи : -27 dB compr : -0.28 dB dsurmod : Not Dolby Surround encoded mixlevel : 285 dB roomtyp : Small dialnorm_Average : -27 dB dialnorm_Minimum : -27 dB dialnorm_Maximum : -27 dB Текст Идентификатор : 8 Формат : UTF-8 Идентификатор кодека : S_TEXT/UTF8 Идентификатор кодека/Информация : UTF-8 Plain Text Продолжительность : 1 ч. 26 мин. Битрейт : 47 бит/сек Частота кадров : 0,178 кадр/сек Число элементов : 925 Размер потока : 29,8 КиБ (0%) Заголовок : English SDH Язык : Английский По умолчанию : Нет Принудительно : Нет Меню 00:00:00.000 : en:Chapter 1
[+] Скриншоты
Релиз от: OldGamer

Всего файлов в раздаче: 1 
Чайна.О'Брайен.China.O'Brien.1988.GBR.Transfer.BDRip-HEVC.1080p.mkv11.96 GB

Похожие раздачи по запросу - Чайна
2024-06-30 magnet Чайна О'Брайен 2 / China O'Brien II (1989) BDRip-HEVC 1080p от RIPS CLUB | A | GBR Transfer 8.42 GB ↑ 0 ↓ 0

Комментарии


Зарегистрируйтесь чтобы добавить комментарий
Торрент клиент
byTorrent - программа для загрузки торрент-файлов.

Скачать byTorrent.exe (1,5 МБ)

Скачать byTorrent.zip (0,6 МБ)

Поддержи torrent.by
российских рублей
(300 российских рублей это 4$)

Обратная связь rss

End game ©