↑↓torrent.by
Поиск
Логин:  Регистрация
Пароль:

Я не киллер / Hit Man (2023) WEB-DLRip-AVC от ExKinoRay | D | Мосфильм-Мастер

download Скачать торрент-файл   magnet Магнитная ссылка Размер: 742.89 MB Добавлен: 2024-06-30 05:00
Пиры будут получены из сети DHT
Последний сидер был замечен вчера в 14:03
Информация о фильме Название: Я не киллер Оригинальное название: Hit Man Год выхода: 2023 Жанр: Комедия, мелодрама, криминал Режиссер: Ричард Линклейтер В ролях: Глен Пауэлл-мл., Адриа Архона, Остин Амелио, Ретта, Эван Хольцман, Молли Бернард, Санджай Рао, Ричи Монтгомери, Джордан Сэллоум, Майк Маркофф, Мерфи Блум, Моргана Шоу, Кейт Адэр, Грэйлен Брайант Бэнкс, Ришар Робишо, Брайант Кэрролл, Бет Бартли, Джонас Лервэй О фильме: Гэри – довольно скучный и невзрачный профессор в разводе. Зато у него талант к перевоплощению: меняя личности, он работает под прикрытием в полиции. Так появляется его второе «я» по имени Рон – харизматичный и стильный киллер. Он использует этот образ, чтобы разоблачить покушение на убийство: некая Мэдди хочет избавиться от мужа-тирана. Но вопреки протоколу Гэри ее не арестовывает, а уговаривает начать новую жизнь. Дальше совсем непрофессионально – он закручивает с ней на роман. Вот только Мэдди принимает его за смертоносного Рона, и Гэри действительно чувствует в себе большие перемены. Страна: США Студия: AGC Studios, Aggregate Films, BarnStorm Productions, Monarch Media, Netflix Продолжительность: 01:55:39 Перевод: Дублированный | Мосфильм-Мастер Файл Формат: MKV Качество: WEB-DLRip-AVC Видео: MPEG-4 AVC, 740x310, 816 Кбит/с Аудио: AAC-HE, 2 ch, 84 Кбит/с Субтитры: Русские (Forced, Full)
[+] MIОбщее Уникальный идентификатор : 110479124254599596713138202279977532732 (0x531D815F7AE9C05DE0FC13C43639BD3C) Полное имя : D:MOVIESHit.Man.2023.DUB.WEB-DLRip-AVC.ExKinoRay.mkv Формат : Matroska Версия формата : Version 4 Размер файла : 743 Мбайт Продолжительность : 1 ч. 55 мин. Общий битрейт : 898 Кбит/сек Частота кадров : 24,000 кадра/сек Дата кодирования : 2024-06-29 13:40:50 UTC Программа кодирования : mkvmerge v45.0.0 ('Heaven in Pennies') 64-bit Библиотека кодирования : libebml v1.3.10 + libmatroska v1.5.2 Видео Идентификатор : 1 Формат : AVC Формат/Информация : Advanced Video Codec Профиль формата : High@L4.1 Настройки формата : CABAC / 12 Ref Frames Параметр CABAC формата : Да Параметр RefFrames формата : 12 кадров Идентификатор кодека : V_MPEG4/ISO/AVC Продолжительность : 1 ч. 55 мин. Битрейт : 816 Кбит/сек Ширина : 740 пикселей Высота : 310 пикселей Соотношение сторон дисплея : 2,39:1 Режим частоты кадров : Постоянный Частота кадров : 24,000 кадра/сек Цветовое пространство : YUV Цветовая субдискретизация : 4:2:0 Битовая глубина : 8 бит Тип развёртки : Прогрессивная Бит/(Пиксели*Кадры) : 0.148 Размер потока : 672 Мбайт (90%) Библиотека кодирования : x264 core 164 r3190 7ed753b Параметры библиотеки кодирования : cabac=1 / ref=12 / deblock=1:-3:-2 / analyse=0x3:0x133 / me=umh / subme=10 / psy=1 / psy_rd=1.05:0.12 / mixed_ref=1 / me_range=32 / chroma_me=1 / trellis=2 / 8x8dct=1 / cqm=0 / deadzone=21,11 / fast_pskip=0 / chroma_qp_offset=-3 / threads=6 / lookahead_threads=1 / sliced_threads=0 / nr=0 / decimate=0 / interlaced=0 / bluray_compat=0 / constrained_intra=0 / bframes=11 / b_pyramid=2 / b_adapt=2 / b_bias=0 / direct=3 / weightb=1 / open_gop=0 / weightp=2 / keyint=240 / keyint_min=24 / scenecut=40 / intra_refresh=0 / rc=2pass / mbtree=0 / bitrate=816 / ratetol=1.0 / qcomp=0.60 / qpmin=0 / qpmax=69 / qpstep=4 / cplxblur=20.0 / qblur=0.5 / ip_ratio=1.40 / pb_ratio=1.30 / aq=3:1.00 Язык : Английский По умолчанию : Да Принудительно : Нет Цветовой диапазон : Limited Основные цвета : BT.709 Характеристики трансфера : BT.709 Коэффициенты матрицы : BT.709 Аудио Идентификатор : 2 Формат : AAC LC SBR Формат/Информация : Advanced Audio Codec Low Complexity with Spectral Band Replication Коммерческое название : HE-AAC Настройки формата : Explicit Идентификатор кодека : A_AAC-2 Продолжительность : 1 ч. 55 мин. Битрейт : 84,0 Кбит/сек Канал(-ы) : 2 канала Расположение каналов : L R Частота дискретизации : 48,0 КГц Частота кадров : 23,438 кадра/сек (2048 SPF) Метод сжатия : С потерями Задержка видео : 31 мс. Размер потока : 69,1 Мбайт (9%) Язык : Русский По умолчанию : Да Принудительно : Нет Текст #1 Идентификатор : 3 Формат : UTF-8 Идентификатор кодека : S_TEXT/UTF8 Идентификатор кодека/Информация : UTF-8 Plain Text Продолжительность : 29 мин. 4 с. Битрейт : 1 бит/сек Частота кадров : 0,005 кадр/сек Число элементов : 9 Размер потока : 406 байт (0%) Заголовок : Forced Язык : Русский По умолчанию : Да Принудительно : Да Текст #2 Идентификатор : 4 Формат : UTF-8 Идентификатор кодека : S_TEXT/UTF8 Идентификатор кодека/Информация : UTF-8 Plain Text Продолжительность : 1 ч. 54 мин. Битрейт : 118 бит/сек Частота кадров : 0,276 кадр/сек Число элементов : 1889 Размер потока : 98,8 КиБ (0%) Заголовок : Full Язык : Русский По умолчанию : Нет Принудительно : Нет
[+] Скриншоты

Всего файлов в раздаче: 1 
Hit.Man.2023.DUB.WEB-DLRip-AVC.ExKinoRay.mkv742.89 MB

Похожие раздачи по запросу - киллер
2024-07-11 magnet Я не киллер / Hit Man (2023) BDRip-AVC от New-Team | D 2.12 GB ↑ 0 ↓ 5
2024-07-11 magnet Я не киллер / Hit Man (2023) BDRip 720p от селезень | D | Мосфильм-Мастер 5.94 GB ↑ 0 ↓ 4
2024-07-11 magnet Я не киллер / Hit Man (2023) BDRemux 1080p от селезень | D | Мосфильм-Мастер 26.21 GB ↑ 0 ↓ 2
2024-07-11 magnet Я не киллер / Hit Man (2023) BDRip 1080p от селезень | D | Мосфильм-Мастер 9.18 GB ↑ 1 ↓ 1
2024-07-11 magnet Я не киллер / Hit Man (2023) BDRip от New-Team | D 1.46 GB ↑ 0 ↓ 2
2024-07-11 magnet Я не киллер / Hit Man (2023) BDRip от DoMiNo & селезень | D | Мосфильм-Мастер 1.46 GB ↑ 0 ↓ 3
2024-06-30 magnet Я не киллер / Hit Man (2023) WEB-DLRip от DoMiNo & селезень | D | Мосфильм-Мастер 1.46 GB ↑ 0 ↓ 0

Комментарии


Зарегистрируйтесь чтобы добавить комментарий
Торрент клиент
byTorrent - программа для загрузки торрент-файлов.

Скачать byTorrent.exe (1,5 МБ)

Скачать byTorrent.zip (0,6 МБ)

Поддержи torrent.by
российских рублей
(300 российских рублей это 4$)

Обратная связь rss

End game ©