↑↓torrent.by
Поиск
Логин:  Регистрация
Пароль:

Великая ирония / Coup de chance (2023) BDRip от New-Team | D

download Скачать торрент-файл   magnet Магнитная ссылка Размер: 1.47 GB Раздают: 1 Качают: 1 Добавлен: 2024-06-30 05:00
Пиры будут получены из сети DHT
Последний сидер был замечен сегодня в 21:15
Великая ирония / Coup de chance Год выпуска: 2023 Выпущено: США, Франция, Великобритания / Dippermouth, Gravier Productions, Perdido Productions Жанр: мелодрама, триллер, драма, комедия Режиссер: Вуди Аллен / Woody Allen В ролях: Лу де Лааж, Нильс Шнайдер, Анна Лаик, Мельвиль Пупо, Янник Шуара, Гийом де Тонкедек, Уильям Надилам, Эльза Зильберштейн, Арно Вьяр, Жанна Бурно О фильме: Успешная и несчастливая в браке женщина сталкивается с бывшим одноклассником, которого не видела много лет. Вспомнив беззаботную юность в Нью-Йорке, она решается на роман с обаятельным писателем, который терял от неё голову в школьные годы. Но когда ревнивый муж начинает что-то подозревать, невинная интрижка постепенно превращается в порочную игру, ставкой в которой может быть сама жизнь. Продолжительность: 01:36:22 Перевод: Профессиональный (полное дублирование) | Мосфильм-Мастер Субтитры: Русские (forced, full), английские Раздача от: Автор релиза: JNS82. Формат: AVI Качество: BDRip | Coup.de.chance.2023.REMUX Видео: 704x352 (2,000), 23.976 fps, XviD MPEG-4 ~ 1722 kbps avg, 0.290 bit/pixel, build 74 Аудио: 48 kHz, AC3 Dolby Digital, 3/2 (L,C,R,l,r) + LFE ch, ~ 448 kbps | RUS |
[+] MediaInfoОбщее Полное имя : D:TorrentsCoup.de.chance.2023.BDRip_от New-TeamCoup.de.chance.2023.BDRip_от New-Team.avi Формат : AVI Формат/Информация : Audio Video Interleave Размер файла : 1,47 Гбайт Продолжительность : 1 ч. 36 м. Общий поток : 2 180 Кбит/сек Программа кодирования : VirtualDubMod 1.5.10.2 (build 2540/release) Библиотека кодирования : VirtualDubMod build 2540/release Видео Идентификатор : 0 Формат : MPEG-4 Visual Профиль формата : Advanced Simple@L5 Настройки формата : BVOP1 / Custom Matrix Параметр BVOP формата : 1 Параметр QPel формата : Нет Параметр GMC формата : Без точки перехода Параметр матрицы формата : Выборочная Идентификатор кодека : XVID Идентификатор кодека/Подсказка : XviD Продолжительность : 1 ч. 36 м. Битрейт : 1 722 Кбит/сек Ширина : 704 пикселя Высота : 352 пикселя Соотношение сторон : 2,000 Частота кадров : 23,976 (24000/1001) кадра/сек Цветовое пространство : YUV Субдискретизация насыщенности : 4:2:0 Битовая глубина : 8 бит Тип развёртки : Прогрессивная Метод сжатия : С потерями Бит/(Пиксели*Кадры) : 0.290 Размер потока : 1,16 Гбайт (79%) Библиотека кодирования : XviD 74 Аудио Идентификатор : 1 Формат : AC-3 Формат/Информация : Audio Coding 3 Коммерческое название : Dolby Digital Идентификатор кодека : 2000 Продолжительность : 1 ч. 36 м. Вид битрейта : Постоянный Битрейт : 448 Кбит/сек Каналы : 6 каналов Channel layout : L R C LFE Ls Rs Частота : 48,0 КГц Частота кадров : 31,250 кадров/сек (1536 SPF) Метод сжатия : С потерями Размер потока : 309 Мбайт (21%) Выравнивание : Разделение по промежуткам Продолжительность промежутка : 42 мс. (1,00 видеокадр) Время предзагрузки промежутка : 500 мс. Service kind : Complete Main

Всего файлов в раздаче: 4 
Coup.de.chance.2023.BDRip_от New-Team.avi1.47 GB
Coup.de.chance.2023.BDRip_от New-Team_[eng].srt106.93 kB
Coup.de.chance.2023.BDRip_от New-Team_forced_[rus].srt158.00 B
Coup.de.chance.2023.BDRip_от New-Team_full_[rus].srt165.85 kB

Похожие раздачи по запросу - Великая
2024-06-30 magnet Великая ирония / Coup de chance (2023) BDRip 720p от DoMiNo & селезень | D | Мосфильм-Мастер 4.38 GB ↑ 0 ↓ 0
2024-06-30 magnet Великая ирония / Coup de chance (2023) BDRemux 1080p | D 18.43 GB ↑ 0 ↓ 0
2024-06-19 magnet Великая Лилиан Холл / The Great Lillian Hall (2024) WEB-DLRip-AVC | L 1.87 GB ↑ 3 ↓ 1
2024-02-14 magnet Великая / Екатерина Великая [S02] (2023) WEBRip 2К7.72 GB ↑ 0 ↓ 0
2023-11-29 magnet Великая иллюзия / La grande illusion / Grand Illusion (1937) HDRip-AVC | P 2.19 GB ↑ 0 ↓ 0

Комментарии


Зарегистрируйтесь чтобы добавить комментарий
Торрент клиент
byTorrent - программа для загрузки торрент-файлов.

Скачать byTorrent.exe (1,5 МБ)

Скачать byTorrent.zip (0,6 МБ)

Поддержи torrent.by
российских рублей
(300 российских рублей это 4$)

Обратная связь rss

End game ©