↑↓torrent.by
Поиск
Логин:  Регистрация
Пароль:

Я не киллер / Hit Man (2023) WEB-DLRip от DoMiNo & селезень | D | Мосфильм-Мастер

download Скачать торрент-файл   magnet Магнитная ссылка Размер: 1.46 GB Добавлен: 2024-06-30 05:00
Пиры будут получены из сети DHT
Последний сидер был замечен 2024-07-06 16:12
Информация о фильме Название: Я не киллер Оригинальное название: Hit Man Год выхода: 2023 Жанр: боевик, мелодрама, комедия, криминал Режиссер: Ричард Линклейтер В ролях: Глен Пауэлл, Адриа Архона, Ретта, Остин Амелио, Молли Бернард, Майк Маркофф, Бет Бартли, Рокси Ривера, Джулия Холт, Ивэн Холцман О фильме: Гэри Джонсон выдает себя за наемного убийцу, чтобы поймать настоящих преступников. Все шло по плану, пока в этой истории не появилась женщина. Страна: США Студия: AGC Studios, Aggregate Films, BarnStorm Productions, Cinetic Media, Detour Filmproduction, Detour Pictures, Monarch Media, Netflix, ShivHans Pictures Продолжительность: 01:55:39 Перевод: Дублированный | Мосфильм-Мастер Субтитры: Русские (Forced - хардсаб, Full), английские - отдельно Файл Формат: AVI Качество: WEB-DLRip | Netflix Видео: 720x304 at 24.000 fps, XviD 69, ~1418 kbps Аудио: AC3, 6 ch, ~384 kbps - | Русский | Формат субтитров: softsub (SRT) ***Рип от: -=DoMiNo=-
[+] M/IGeneral Complete name : S:Hit.Man.2023.DUB.WEB-DLRip.seleZenHit.Man.2023.DUB.WEB-DLRip.seleZen.avi Format : AVI Format/Info : Audio Video Interleave Format settings : BitmapInfoHeader / WaveFormatEx File size : 1.46 GiB Duration : 1 h 55 min Overall bit rate : 1 809 kb/s Frame rate : 24.000 FPS Movie name : Hit Man.2023.DUB.WEB-DLRip.seleZen Writing application : VirtualDubModRus 1.5.10.2 (build 2542/release) Writing library : VirtualDubMod build 2542/release Copyright : -=DoMiNo=- Video ID : 0 Format : MPEG-4 Visual Format profile : Advanced Simple@L5 Format settings : BVOP1 / Custom Matrix Format settings, BVOP : 1 Format settings, QPel : No Format settings, GMC : No warppoints Format settings, Matrix : Custom Codec ID : XVID Codec ID/Hint : XviD Duration : 1 h 55 min Bit rate : 1 418 kb/s Width : 720 pixels Height : 304 pixels Display aspect ratio : 2.39:1 Frame rate : 24.000 FPS Color space : YUV Chroma subsampling : 4:2:0 Bit depth : 8 bits Scan type : Progressive Compression mode : Lossy Bits/(Pixel*Frame) : 0.270 Stream size : 1.15 GiB (78%) Writing library : XviD 69 Audio ID : 1 Format : AC-3 Format/Info : Audio Coding 3 Commercial name : Dolby Digital Codec ID : 2000 Duration : 1 h 55 min Bit rate mode : Constant Bit rate : 384 kb/s Channel(s) : 6 channels Channel layout : L R C LFE Ls Rs Sampling rate : 48.0 kHz Frame rate : 31.250 FPS (1536 SPF) Compression mode : Lossy Stream size : 316 MiB (21%) Alignment : Split across interleaves Interleave, duration : 42 ms (1.01 video frame) Interleave, preload duratio : 500 ms Service kind : Complete Main Dialog Normalization : -31 dB cmixlev : -3.0 dB surmixlev : -3 dB dialnorm_Average : -31 dB dialnorm_Minimum : -31 dB dialnorm_Maximum : -31 dB
Релиз: Присоединяйся к: Кликай на баннеры.

Всего файлов в раздаче: 3 
Hit.Man.2023.DUB.WEB-DLRip.seleZen.[eng].srt146.89 kB
Hit.Man.2023.DUB.WEB-DLRip.seleZen.[rus].srt173.37 kB
Hit.Man.2023.DUB.WEB-DLRip.seleZen.avi1.46 GB

Похожие раздачи по запросу - киллер
2024-07-11 magnet Я не киллер / Hit Man (2023) BDRip-AVC от New-Team | D 2.12 GB ↑ 0 ↓ 1
2024-07-11 magnet Я не киллер / Hit Man (2023) BDRip 720p от селезень | D | Мосфильм-Мастер 5.94 GB ↑ 0 ↓ 2
2024-07-11 magnet Я не киллер / Hit Man (2023) BDRemux 1080p от селезень | D | Мосфильм-Мастер 26.21 GB ↑ 0 ↓ 5
2024-07-11 magnet Я не киллер / Hit Man (2023) BDRip 1080p от селезень | D | Мосфильм-Мастер 9.18 GB ↑ 1 ↓ 3
2024-07-11 magnet Я не киллер / Hit Man (2023) BDRip от New-Team | D 1.46 GB ↑ 0 ↓ 0
2024-07-11 magnet Я не киллер / Hit Man (2023) BDRip от DoMiNo & селезень | D | Мосфильм-Мастер 1.46 GB ↑ 0 ↓ 0
2024-06-30 magnet Я не киллер / Hit Man (2023) WEB-DLRip-AVC от ExKinoRay | D | Мосфильм-Мастер 742.89 MB ↑ 0 ↓ 0

Комментарии


Зарегистрируйтесь чтобы добавить комментарий
Торрент клиент
byTorrent - программа для загрузки торрент-файлов.

Скачать byTorrent.exe (1,5 МБ)

Скачать byTorrent.zip (0,6 МБ)

Поддержи torrent.by
российских рублей
(300 российских рублей это 4$)

Обратная связь rss

End game ©