↑↓torrent.by
Поиск
Логин:  Регистрация
Пароль:

Неуязвимый: Атомная Ева. Спецвыпуск / Invincible: Atom Eve (2023) WEB-DLRip 1080p | D | Локализованная версия | Flarrow Films

download Скачать торрент-файл   magnet Магнитная ссылка Размер: 1.74 GB Добавлен: 2024-06-30 05:00
Пиры будут получены из сети DHT
Последний сидер был замечен 2024-07-08 17:37
Информация о фильме Название: Неуязвимый: Атомная Ева Оригинальное название: Invincible: Atom Eve Год выхода: 2023 Жанр: мультфильм, фантастика, боевик Режиссер: Хейли Херрик В ролях: Гиллиан Джейкобс, Мэдисон Калдерон, Лэнс Реддик, Стивен Ян, Сандра О, Дж.К. Симмонс, Лорен Кохэн, Тейлор Дирден, Крис Диамантополос, Грэй Гриффин Стивен Рут, Джазлин Айон, Татьяна Маслани, Фред Таташиор О фильме: Саманта Ева Уилкинс - не обычный ребенок. Она с раннего возраста могла видеть молекулы окружающего мира. Её считали странным ребенком, ведь именно их она рисовала и строила, используя конструктор LEGO. Саманта Ева начинает свою историю супер героя, став членом команды Teen Team. Девушка способна манипулировать материями в суб-атомном диапазоне. Страна: США Продолжительность: 00:55:40 Перевод: Дублированный (неофициальный) | Flarrow Films Роли озвучивали: Елена Лунина, Алексей Войтюк, Михаил Белякович, Анна Киселёва, Геннадий Новиков, Сергей Чихачёв, Ахилл Намазов, Анастасия Лапина, Антон Савенков, Мария Фортунатова, Иван Жарков, Таисия Тришина, Олег Куценко, Варвара Саранцева, Владимир Войтюк, Юлия Горохова, Михаил Глушковский, Елена Харитонова, Виталий Кашеваров, Максим Жидков Файл Формат:MKV Кодек: MPEG-4 AVC Качество: WEB-DLRip 1080p (Локализированный видеоряд) Видео: 1920х1080, ~ 4 278 kb/s, 23.976, 8 bits Аудио: AC-3, 192 kb/s, 2 channels, 48.0 kHz Субтитры: русские (отключаемые UTF-8) ПОДПИШИСЬ НА НАС В ТЕЛЕГРАМ
[+] MediaInfo General Unique ID : 249350731907117980570157234747642538493 (0xBB9734416FB3A241EA982C2BBDBCE9FD) Complete name : C:Flarrow FilmsInvincible.2021.s00e01.Atom.Eve.Special.Episode.1080p.Flarrow.Films.mkv Format : Matroska Format version : Version 4 File size : 1.74 GiB Duration : 55 min 40 s Overall bit rate : 4 472 kb/s Encoded date : UTC 2024-06-28 11:40:08 Writing application : mkvmerge v45.0.0 ('Heaven in Pennies') 64-bit Writing library : libebml v1.3.10 + libmatroska v1.5.2 Video ID : 1 Format : AVC Format/Info : Advanced Video Codec Format profile : High@L4 Format settings : CABAC / 2 Ref Frames Format settings, CABAC : Yes Format settings, Reference : 2 frames Codec ID : V_MPEG4/ISO/AVC Duration : 55 min 40 s Bit rate : 4 278 kb/s Nominal bit rate : 4 639 kb/s Width : 1 920 pixels Height : 1 080 pixels Display aspect ratio : 16:9 Frame rate mode : Constant Frame rate : 23.976 (24000/1001) FPS Color space : YUV Chroma subsampling : 4:2:0 Bit depth : 8 bits Scan type : Progressive Bits/(Pixel*Frame) : 0.086 Stream size : 1.66 GiB (96%) Writing library : x264 core 161 Encoding settings : cabac=1 / ref=2 / deblock=1:0:0 / analyse=0x3:0x113 / me=hex / subme=4 / psy=1 / psy_rd=1.00:0.00 / mixed_ref=0 / me_range=16 / chroma_me=1 / trellis=1 / 8x8dct=1 / cqm=0 / deadzone=21,11 / fast_pskip=1 / chroma_qp_offset=0 / threads=30 / lookahead_threads=7 / sliced_threads=0 / nr=0 / decimate=1 / interlaced=0 / bluray_compat=0 / constrained_intra=0 / bframes=2 / b_pyramid=0 / b_adapt=1 / b_bias=0 / direct=1 / weightb=1 / open_gop=0 / weightp=1 / keyint=192 / keyint_min=19 / scenecut=40 / intra_refresh=0 / rc_lookahead=20 / rc=abr / mbtree=1 / bitrate=4639 / ratetol=1.0 / qcomp=0.60 / qpmin=0 / qpmax=69 / qpstep=4 / vbv_maxrate=6184 / vbv_bufsize=9278 / nal_hrd=none / filler=0 / ip_ratio=1.40 / aq=1:1.00 Default : Yes Forced : No Color range : Limited Color primaries : BT.709 Transfer characteristics : BT.709 Matrix coefficients : BT.709 Audio ID : 2 Format : AC-3 Format/Info : Audio Coding 3 Commercial name : Dolby Digital Codec ID : A_AC3 Duration : 55 min 40 s Bit rate mode : Constant Bit rate : 192 kb/s Channel(s) : 2 channels Channel layout : L R Sampling rate : 48.0 kHz Frame rate : 31.250 FPS (1536 SPF) Compression mode : Lossy Stream size : 76.5 MiB (4%) Service kind : Complete Main Default : Yes Text ID : 3 Format : UTF-8 Codec ID : S_TEXT/UTF8 Codec ID/Info : UTF-8 Plain Text Duration : 51 min 4 s Bit rate : 93 b/s Frame rate : 0.282 FPS Count of elements : 863 Stream size : 34.9 KiB (0%) Default : Yes Forced : No
[+] Скриншоты
Релиз от: Flarrow Films Примечание: Релиз без рекламы.

Всего файлов в раздаче: 1 
Invincible.2021.s00e01.Atom.Eve.Special.Episode.1080p.Flarrow.Films.mkv1.74 GB

Похожие раздачи по запросу - Неуязвимый
2024-04-11 magnet Неуязвимый / Invincible [S02] (2023) WEB-DL 1080p от NewComers | P 12.10 GB ↑ 0 ↓ 0
2024-04-11 magnet Неуязвимый / Invincible [S02] (2023) WEB-DL 1080p от Scarabey | D | Red Head Sound 12.10 GB ↑ 0 ↓ 1

Комментарии


Зарегистрируйтесь чтобы добавить комментарий
Торрент клиент
byTorrent - программа для загрузки торрент-файлов.

Скачать byTorrent.exe (1,5 МБ)

Скачать byTorrent.zip (0,6 МБ)

Поддержи torrent.by
российских рублей
(300 российских рублей это 4$)

Обратная связь rss

End game ©