↑↓torrent.by
Поиск
Логин:  Регистрация
Пароль:

Напиши сценарий / Блеф / Just Write (1997) DVDRemux | P2, A

download Скачать торрент-файл   magnet Магнитная ссылка Размер: 4.09 GB Добавлен: 2024-06-30 11:00
Пиры будут получены из сети DHT
Последний сидер был замечен 2024-06-30 17:50
Напиши сценарий Информация о фильме Год релиза: 1997 Выпущено: США Жанр: романтическая комедия Режиссер: Эндрю Галлерани В ролях: Шерилин Фенн, Джереми Пивен, ДжоБет Уильямс, Уоллес Шоун, Алекс Рокко, Джеффри Д. Сэмс, Костас Мэндилор, Ярдли Смит, Холланд Тейлор О фильме: Гарольд - обычный парень. Однажды, в кафе он сталкивается со своей любимой киноактрисой и решает с ней познакомиться. Девушка принимает его за модного писателя, а он не торопится ее разубедить. Аманда польщена и очарована. Тут-то все и начинается. Их отношения перерастают в нечто большее, чем просто дружба. С каждым днем Гарольду все труднее играть свою роль, но его фантазия неистощима. Чтобы остаться с Амандой, он решает стать настоящим писателем. Удастся ли ему это перевоплощение? Продолжительность: 01:44:45 Перевод A: Авторский (одноголосый закадровый) Сергей Визгунов Перевод P2: Профессиональный (двухголосый закадровый) Субтитры: нет Качество видео: DVDRemux Формат видео: MKV Видео: MPEG2 Video 720x480 (4:3) 29.97fps Bit rate 5 005 kb/s Аудио 1: 48 kHz, AC3 Dolby Digital, 2/0 (L,R) ch (моно), ~192 kbps ENG Аудио 2: 48 kHz, AC3 Dolby Digital, 2/0 (L,R) ch, ~192 kbps Аудио 3: 48 kHz, AC3 Dolby Digital, 2/0 (L,R) ch, ~192 kbps Реклама: Отсутствует
[+] MediaInfo Напиши сценарий (Just Write) DVDRemux .mkv Format : Matroska Format version : Version 4 File size : 4.09 GiB Duration : 1 h 44 min Overall bit rate mode : Variable Overall bit rate : 5 585 kb/s Frame rate : 23.976 FPS Encoded date : 2024-06-27 03:54:41 UTC Writing application : mkvmerge v71.0.0 ('Altitude') 64-bit Writing library : libebml v1.4.4 + libmatroska v1.7.1 Video ID : 1 ID in the original source m : 224 (0xE0) Format : MPEG Video Format version : Version 2 Format profile : Main@Main Format settings : CustomMatrix / BVOP Format settings, BVOP : Yes Format settings, Matrix : Custom Format settings, GOP : Variable Codec ID : V_MPEG2 Codec ID/Info : MPEG 1 or 2 Video Duration : 1 h 44 min Bit rate mode : Variable Bit rate : 5 005 kb/s Maximum bit rate : 9 800 kb/s Width : 720 pixels Height : 480 pixels Display aspect ratio : 4:3 Frame rate mode : Variable Frame rate : 23.976 (24000/1001) FPS Color space : YUV Chroma subsampling : 4:2:0 Bit depth : 8 bits Scan type : Progressive Scan order : 2:3 Pulldown Compression mode : Lossy Bits/(Pixel*Frame) : 0.604 Time code of first frame : 00:59:58;00 Time code source : Group of pictures header GOP, Open/Closed : Open GOP, Open/Closed of first f : Closed Stream size : 3.66 GiB (90%) Language : English Default : No Forced : No Original source medium : DVD-Video Audio #1 ID : 2 Format : AC-3 Format/Info : Audio Coding 3 Commercial name : Dolby Digital Codec ID : A_AC3 Duration : 1 h 44 min Bit rate mode : Constant Bit rate : 192 kb/s Channel(s) : 2 channels Channel layout : L R Sampling rate : 48.0 kHz Frame rate : 31.250 FPS (1536 SPF) Compression mode : Lossy Stream size : 144 MiB (3%) Title : AVO Language : Russian Service kind : Complete Main Default : Yes Forced : No Audio #2 ID : 3 ID in the original source m : 189 (0xBD)128 (0x80) Format : AC-3 Format/Info : Audio Coding 3 Commercial name : Dolby Digital Codec ID : A_AC3 Duration : 1 h 44 min Bit rate mode : Constant Bit rate : 192 kb/s Channel(s) : 2 channels Channel layout : L R Sampling rate : 48.0 kHz Frame rate : 31.250 FPS (1536 SPF) Compression mode : Lossy Stream size : 144 MiB (3%) Title : DVO Language : Russian Service kind : Complete Main Default : No Forced : No Original source medium : DVD-Video Audio #3 ID : 4 ID in the original source m : 189 (0xBD)129 (0x81) Format : AC-3 Format/Info : Audio Coding 3 Commercial name : Dolby Digital Codec ID : A_AC3 Duration : 1 h 44 min Bit rate mode : Constant Bit rate : 192 kb/s Channel(s) : 2 channels Channel layout : L R Sampling rate : 48.0 kHz Frame rate : 31.250 FPS (1536 SPF) Compression mode : Lossy Stream size : 144 MiB (3%) Language : English Service kind : Complete Main Default : No Forced : No Original source medium : DVD-Video
[+] Скриншоты

Всего файлов в раздаче: 1 
Напиши сценарий (Just Write) DVDRemux [by ale_x2008].mkv4.09 GB

Комментарии


Зарегистрируйтесь чтобы добавить комментарий
Торрент клиент
byTorrent - программа для загрузки торрент-файлов.

Скачать byTorrent.exe (1,5 МБ)

Скачать byTorrent.zip (0,6 МБ)

Поддержи torrent.by
российских рублей
(300 российских рублей это 4$)

Обратная связь rss

End game ©