↑↓torrent.by
Поиск
Логин:  Регистрация
Пароль:

Коснись единорога и загадай желание / Wish Upon a Unicorn (2020) BDRip от DoMiNo & селезень | D | Кириллица

download Скачать торрент-файл   magnet Магнитная ссылка Размер: 1.46 GB Добавлен: 2024-06-30 11:00
Пиры будут получены из сети DHT
Последний сидер был замечен 2024-06-30 11:00
Информация о фильме Название: Коснись единорога и загадай желание Оригинальное название: Wish Upon A Unicorn Жанр: фэнтези, приключения, семейный Год выпуска: 2020 Режиссер: Стив Бенчич / Steve Bencich В ролях: Райан Кира Армстронг, Саммер Фонтана, Джон Лажуа, Хлоя Уэбб, Кевин Дж. О’Коннор, Джон Грайз, Рик Овертон, Тейт Блум, Брэнскомб Ричмонд, Брайан Браун, Карли Дачер Описание: Две сестры вместе с отцом переезжают из города в деревню, пожить к бабушке. На её ферме они обнаруживают маленького единорога по имени Рокко, с которым заводят дружбу. Рокко обладает магическими силами и дарит девочкам немного счастья, шуток и смеха, что облегчает приспособление к новому дому и школе. Но когда местные нищие ковбои узнают о волшебном единороге, они похищают Рокко, чтобы использовать его силы для себя. Сёстры отправляются спасать своего друга. Страна: США Студия: Universal 1440 Entertainment, Indy Entertainment Продолжительность: 01:33:10 Перевод: Профессиональный (дублированный) | Кириллица | iTunes Субтитры: Русские (Forced, Full), Английские (SDH) - отдельно Файл Формат: AVI Качество: BDRip Исходник: Wish.Upon.a.Unicorn.2020.1080p.BluRay.REMUX.AVC.DTS-HD.MA.5.1-TRiToN+RusAudio Видео: 704x400 at 23.976 fps, XviD 69, ~1854 kbps Аудио: AC3, 6 ch, ~384 kbps - | Русский | Формат субтитров: softsub (SRT) ***Рип от: -=DoMiNo=-
[+] M/IGeneral Complete name : S:Wish.Upon.a.Unicorn.2020.DUB.BDRip.seleZenWish.Upon.a.Unicorn.2020.DUB.BDRip.seleZen.avi Format : AVI Format/Info : Audio Video Interleave Format settings : BitmapInfoHeader / WaveFormatEx File size : 1.46 GiB Duration : 1 h 33 min Overall bit rate : 2 247 kb/s Frame rate : 23.976 FPS Movie name : Wish.Upon.a.Unicorn.2020.DUB.BDRip.seleZen Writing application : VirtualDubModRus 1.5.10.2 (build 2542/release) Writing library : VirtualDubMod build 2542/release Copyright : -=DoMiNo=- Video ID : 0 Format : MPEG-4 Visual Format profile : Advanced Simple@L5 Format settings : BVOP1 / Custom Matrix Format settings, BVOP : 1 Format settings, QPel : No Format settings, GMC : No warppoints Format settings, Matrix : Custom Codec ID : XVID Codec ID/Hint : XviD Duration : 1 h 33 min Bit rate : 1 854 kb/s Width : 704 pixels Height : 400 pixels Display aspect ratio : 16:9 Frame rate : 23.976 (24000/1001) FPS Color space : YUV Chroma subsampling : 4:2:0 Bit depth : 8 bits Scan type : Progressive Compression mode : Lossy Bits/(Pixel*Frame) : 0.275 Stream size : 1.21 GiB (82%) Writing library : XviD 69 Audio ID : 1 Format : AC-3 Format/Info : Audio Coding 3 Commercial name : Dolby Digital Codec ID : 2000 Duration : 1 h 33 min Bit rate mode : Constant Bit rate : 384 kb/s Channel(s) : 6 channels Channel layout : L R C LFE Ls Rs Sampling rate : 48.0 kHz Frame rate : 31.250 FPS (1536 SPF) Compression mode : Lossy Stream size : 256 MiB (17%) Alignment : Split across interleaves Interleave, duration : 42 ms (1.00 video frame) Interleave, preload duratio : 500 ms Service kind : Complete Main Dialog Normalization : -31 dB cmixlev : -4.5 dB surmixlev : -6 dB dialnorm_Average : -31 dB dialnorm_Minimum : -31 dB dialnorm_Maximum : -31 dB
Релиз: Присоединяйся к: Кликай на баннеры.

Всего файлов в раздаче: 4 
Wish.Upon.a.Unicorn.2020.DUB.BDRip.seleZen.[eng].srt110.21 kB
Wish.Upon.a.Unicorn.2020.DUB.BDRip.seleZen.[rus].Forced.srt1.05 kB
Wish.Upon.a.Unicorn.2020.DUB.BDRip.seleZen.[rus].srt98.94 kB
Wish.Upon.a.Unicorn.2020.DUB.BDRip.seleZen.avi1.46 GB

Похожие раздачи по запросу - Коснись
2024-06-30 magnet Коснись единорога и загадай желание / Wish Upon a Unicorn (2020) BDRip от ExKinoRay | D 1.46 GB ↑ 0 ↓ 0
2024-06-30 magnet Коснись единорога и загадай желание / Wish Upon a Unicorn (2020) BDRemux 1080p | D 18.52 GB ↑ 0 ↓ 0

Комментарии


Зарегистрируйтесь чтобы добавить комментарий
Торрент клиент
byTorrent - программа для загрузки торрент-файлов.

Скачать byTorrent.exe (1,5 МБ)

Скачать byTorrent.zip (0,6 МБ)

Поддержи torrent.by
российских рублей
(300 российских рублей это 4$)

Обратная связь rss

End game ©