↑↓torrent.by
Поиск
Логин:  Регистрация
Пароль:

Про бизнесмена Фому (1993) WEB-DLRip от New-Team

download Скачать торрент-файл   magnet Магнитная ссылка Размер: 1.09 GB Добавлен: 2024-06-30 11:00
Пиры будут получены из сети DHT
Последний сидер был замечен 2024-07-02 22:18
Страна: Россия Производство: Мосфильм, Слово Жанр: драма, комедия Год выпуска: 1993 Продолжительность: 01:17:15 Перевод: не требуется Оригинальная аудиодорожка: русский Cубтитры: нет Режиссер: Валерий Чиков В ролях: Сергей Рубеко, Михаил Евдокимов, Валерий Миронов, Владимир Кашпур (Лука Совков), Андрей Николаев (рэкетир), Николай Карнаухов, Виталий Тараничев, Александр Леньков (секретарь райкома), Игорь Ясулович (постоянный клиент медвытрезвителя), Михаил Светин (Зозулин), Александр Толмачев (сержант Дудариков), Игорь Штернберг... Подробнее об актерах Описание: Сельский механизатор Фома, увидев в городе платный туалет, загорелся идеей разбогатеть в своей деревне на таком же бизнесе. Построил роскошное заведение, но деревенским коммунистам и местным рэкетирам эта капиталистическая идея не понравилась… Исходник: WEB-DL 1080p Тип релиза: WEB-DLRip Контейнер: AVI Видео: 720x528 (4:3), 24,000 кадра/сек, XviD 73 ~ 1 749 kbps avg, 0.192 бит/пиксель Аудио: 48 кГц, Dolby Digital AC3 2.0, 192 кбит/сек Раздача от:
[+] MediaInfo Общее Полное имя : Про бизнесмена Фому.1993.WEB-DLRip__by_AVP_Studio.avi Формат : AVI Формат/Информация : Audio Video Interleave Настройки формата : BitmapInfoHeader / WaveFormatEx Размер файла : 1,09 Гбайт Продолжительность : 1 ч. 19 м. Общий поток : 1 950 Кбит/сек Частота кадров : 24,000 кадра/сек Программа кодирования : VirtualDubMod 1.5.10.3 | www.virtualdub-fr.org || (build 2550/release) Библиотека кодирования : VirtualDubMod build 2550/release Видео Идентификатор : 0 Формат : MPEG-4 Visual Профиль формата : Advanced Simple@L5 Настройки формата : BVOP1 / Custom Matrix Параметр BVOP формата : 1 Параметр QPel формата : Нет Параметр GMC формата : Без точки перехода Параметр матрицы формата : Выборочная Идентификатор кодека : XVID Идентификатор кодека/Подсказка : XviD Продолжительность : 1 ч. 19 м. Битрейт : 1 749 Кбит/сек Ширина : 720 пикселей Высота : 528 пикселей Соотношение сторон : 4:3 Частота кадров : 24,000 кадра/сек Цветовое пространство : YUV Субдискретизация насыщенности : 4:2:0 Битовая глубина : 8 бит Тип развёртки : Прогрессивная Метод сжатия : С потерями Бит/(Пиксели*Кадры) : 0.192 Размер потока : 999 Мбайт (90%) Библиотека кодирования : XviD 73 Аудио Идентификатор : 1 Формат : AC-3 Формат/Информация : Audio Coding 3 Коммерческое название : Dolby Digital Идентификатор кодека : 2000 Продолжительность : 1 ч. 19 м. Вид битрейта : Постоянный Битрейт : 192 Кбит/сек Каналы : 2 канала Channel layout : L R Частота : 48,0 КГц Частота кадров : 31,250 кадров/сек (1536 SPF) Метод сжатия : С потерями Размер потока : 110 Мбайт (10%) Выравнивание : Разделение по промежуткам Продолжительность промежутка : 42 мс. (1,00 видеокадр) Время предзагрузки промежутка : 500 мс
[+] Скриншоты

Всего файлов в раздаче: 1 
Про бизнесмена Фому.1993.WEB-DLRip_[New-team]_by_AVP_Studio.avi1.09 GB

Похожие раздачи по запросу - Про
2024-07-22 magnet Про Веру [S01] (2017) WEB-DL 1080p 15.11 GB ↑ 0 ↓ 0
2024-05-26 magnet Питер Эткинс - В начале было ничто. Про время, пространство, скорость и другие константы физики (2023) MP3 179.70 MB ↑ 0 ↓ 0

Комментарии


Зарегистрируйтесь чтобы добавить комментарий
Торрент клиент
byTorrent - программа для загрузки торрент-файлов.

Скачать byTorrent.exe (1,5 МБ)

Скачать byTorrent.zip (0,6 МБ)

Поддержи torrent.by
российских рублей
(300 российских рублей это 4$)

Обратная связь rss

End game ©