↑↓torrent.by
Поиск
Логин:  Регистрация
Пароль:

Дымок из ствола / Gunsmoke (1953) DVDRemux | A

download Скачать торрент-файл   magnet Магнитная ссылка Размер: 4.06 GB Добавлен: 2024-06-30 11:00
Пиры будут получены из сети DHT
Последний сидер был замечен 2024-06-30 11:00
Дымок из ствола Информация о фильме Год релиза: 1953 Выпущено: США Жанр: драма, вестерн Режиссер: Нэйтан Юран В ролях: Оди Мерфи, Сюзан Кэбот, Пол Келли, Чарльз Дрэйк, Мэри Кастл, Джек Келли, Джесси Уайт, Дональд Рэндольф, Уильям Рейнольдс, Чабби Джонсон О фильме: Наёмный убийца Реб Киттридж (Оди Мёрфи) отправляется работать в Монтану к Мэтту Телфорду (Дональд Рэндольф), который планирует захватить плодородные пастбища Дэна Саксона (Пол Келли). Однако Реб не рассчитывал стать сам собой владельцем земли, выиграв имущество Саксона в карточной игре. Внезапно ему приходится сотрудничать с Саксоном и его дочерью Ритой (Сьюзан Кэбот), чтобы привезти скот на железнодорожную линию для оплаты ипотеки. Чтобы помешать этому Телфорд нанимает бывшего партнера Реба, Джонни Лейка (Чарльз Дрейк). Продолжительность: 01:19:06 Перевод: Одноголосый закадровый Геннадий Миханоша / нигериец Субтитры: нет Качество видео: DVDRemux Формат видео: MKV Видео: MPEG2 Video 720x480 (4:3) 29.97fps Bit rate 6 938 kb/s Аудио 1: Dolby AC3 48000Hz 2 ch (mono) 192kbps Аудио 2: Dolby AC3 48000Hz 2 ch 224kbps Английская Реклама: Отсутствует
[+] MediaInfo Дымок из ствола (Gunsmoke) DVDRemux .mkv Format : Matroska Format version : Version 4 File size : 4.06 GiB Duration : 1 h 19 min Overall bit rate mode : Variable Overall bit rate : 7 357 kb/s Frame rate : 23.976 FPS Encoded date : 2024-06-27 20:02:06 UTC Writing application : mkvmerge v71.0.0 ('Altitude') 64-bit Writing library : libebml v1.4.4 + libmatroska v1.7.1 Video ID : 1 ID in the original source m : 224 (0xE0) Format : MPEG Video Format version : Version 2 Format profile : Main@Main Format settings : BVOP Format settings, BVOP : Yes Format settings, Matrix : Default Format settings, GOP : M=3, N=15 Codec ID : V_MPEG2 Codec ID/Info : MPEG 1 or 2 Video Duration : 1 h 19 min Bit rate mode : Variable Bit rate : 6 938 kb/s Maximum bit rate : 9 000 kb/s Width : 720 pixels Height : 480 pixels Display aspect ratio : 4:3 Frame rate mode : Variable Frame rate : 23.976 (23976/1000) FPS Original frame rate : 23.976 (24000/1001) FPS Color space : YUV Chroma subsampling : 4:2:0 Bit depth : 8 bits Scan type : Progressive Scan order : 2:3 Pulldown Compression mode : Lossy Bits/(Pixel*Frame) : 0.837 Time code of first frame : 00:00:00:00 Time code source : Group of pictures header GOP, Open/Closed : Open GOP, Open/Closed of first f : Closed Stream size : 3.83 GiB (94%) Language : English Default : No Forced : No Original source medium : DVD-Video Audio #1 ID : 2 Format : AC-3 Format/Info : Audio Coding 3 Commercial name : Dolby Digital Codec ID : A_AC3 Duration : 1 h 19 min Bit rate mode : Constant Bit rate : 192 kb/s Channel(s) : 2 channels Channel layout : L R Sampling rate : 48.0 kHz Frame rate : 31.250 FPS (1536 SPF) Compression mode : Lossy Stream size : 109 MiB (3%) Language : Russian Service kind : Complete Main Default : Yes Forced : No Audio #2 ID : 3 ID in the original source m : 189 (0xBD)128 (0x80) Format : AC-3 Format/Info : Audio Coding 3 Commercial name : Dolby Digital Codec ID : A_AC3 Duration : 1 h 19 min Bit rate mode : Constant Bit rate : 224 kb/s Channel(s) : 2 channels Channel layout : L R Sampling rate : 48.0 kHz Frame rate : 31.250 FPS (1536 SPF) Compression mode : Lossy Stream size : 127 MiB (3%) Language : English Service kind : Complete Main Default : No Forced : No Original source medium : DVD-Video
[+] Скриншоты

Всего файлов в раздаче: 1 
Дымок из ствола (Gunsmoke) DVDRemux [by ale_x2008].mkv4.06 GB

Комментарии


Зарегистрируйтесь чтобы добавить комментарий
Торрент клиент
byTorrent - программа для загрузки торрент-файлов.

Скачать byTorrent.exe (1,5 МБ)

Скачать byTorrent.zip (0,6 МБ)

Поддержи torrent.by
российских рублей
(300 российских рублей это 4$)

Обратная связь rss

End game ©