↑↓torrent.by
Поиск
Логин:  Регистрация
Пароль:

Великая ирония / Coup de chance (2023) BDRip 720p от DoMiNo & селезень | D | Мосфильм-Мастер

download Скачать торрент-файл   magnet Магнитная ссылка Размер: 4.38 GB Раздают: 0 Качают: 1 Добавлен: 2024-06-30 11:00
Пиры будут получены из сети DHT
Последний сидер был замечен 2024-07-01 20:23
Информация о фильме Название: Великая ирония Оригинальное название: Coup de chance Год выхода: 2023 Жанр: мелодрама, триллер, драма, комедия Режиссер: Вуди Аллен В ролях: Лу де Лааж, Нильс Шнайдер, Анна Лаик, Мельвиль Пупо, Янник Шуара, Гийом де Тонкедек, Уильям Надилам, Эльза Зильберштейн, Арно Вьяр, Жанна Бурно О фильме: Успешная и несчастливая в браке женщина сталкивается с бывшим одноклассником, которого не видела много лет. Вспомнив беззаботную юность в Нью-Йорке, она решается на роман с обаятельным писателем, который терял от неё голову в школьные годы. Но когда ревнивый муж начинает что-то подозревать, невинная интрижка постепенно превращается в порочную игру, ставкой в которой может быть сама жизнь. Страна: США, Франция, Великобритания Студия: Dippermouth, Gravier Productions, Perdido Productions, Petite Fleur Productions Продолжительность: 01:36:22 Перевод: Дублированный | Мосфильм-Мастер Субтитры: Русские (Forced, Full), английские, французские Файл Формат: Matroska Качество: BDRip 720p Видео: 1280x640 at 23.976 fps, x264@L4.1, ~5413 kbps Аудио 1: AC3, 6 ch, ~448 kbps - | Русский | Аудио 2: AC3, 6 ch, ~640 kbps - | Французский | Формат субтитров: softsub (SRT) ***Рип от: -=DoMiNo=-
[+] M/Ix264 : frame I:784 Avg QP:14.12 size:154457 x264 : frame P:28383 Avg QP:16.16 size: 59049 x264 : frame B:109474 Avg QP:17.65 size: 19327 General Unique ID : 275393902021580244655910252791744600090 (0xCF2EEFAD751B3BB8EA80ABA0291A981A) Complete name : U:Coup.de.chance.2023.DUB.BDRip.720p.x264.seleZen.mkv Format : Matroska Format version : Version 4 File size : 4.38 GiB Duration : 1 h 36 min Overall bit rate : 6 504 kb/s Frame rate : 23.976 FPS Movie name : Coup.de.chance.2023.DUB.BDRip.720p.x264.seleZen Encoded date : 2024-06-29 20:30:29 UTC Writing application : mkvmerge v85.0 ('Shame For You') 64-bit Writing library : libebml v1.4.5 + libmatroska v1.7.1 Cover : Yes Attachments : cover.jpg / small_cover.jpg Video ID : 1 Format : AVC Format/Info : Advanced Video Codec Format profile : High@L4.1 Format settings : CABAC / 10 Ref Frames Format settings, CABAC : Yes Format settings, Reference : 10 frames Codec ID : V_MPEG4/ISO/AVC Duration : 1 h 36 min Bit rate : 5 413 kb/s Width : 1 280 pixels Height : 640 pixels Display aspect ratio : 2.000 Frame rate mode : Constant Frame rate : 23.976 (24000/1001) FPS Color space : YUV Chroma subsampling : 4:2:0 Bit depth : 8 bits Scan type : Progressive Bits/(Pixel*Frame) : 0.276 Stream size : 3.64 GiB (83%) Title : -=DoMiNo=- Writing library : x264 core 164 r3191 -DoMiNo Encoding settings : cabac=1 / ref=10 / deblock=1:-3:-2 / analyse=0x3:0x133 / me=umh / subme=10 / psy=1 / psy_rd=1.05:0.05 / mixed_ref=1 / me_range=32 / chroma_me=1 / trellis=2 / 8x8dct=1 / cqm=0 / deadzone=21,11 / fast_pskip=0 / chroma_qp_offset=-3 / threads=20 / lookahead_threads=5 / sliced_threads=0 / nr=0 / decimate=1 / interlaced=0 / bluray_compat=0 / constrained_intra=0 / bframes=10 / b_pyramid=2 / b_adapt=2 / b_bias=0 / direct=3 / weightb=1 / open_gop=0 / weightp=2 / keyint=240 / keyint_min=23 / scenecut=40 / intra_refresh=0 / rc_lookahead=60 / rc=crf / mbtree=0 / crf=16.8 / qcomp=0.60 / qpmin=0 / qpmax=69 / qpstep=4 / vbv_maxrate=50000 / vbv_bufsize=62500 / crf_max=0.0 / nal_hrd=none / filler=0 / ip_ratio=1.40 / pb_ratio=1.30 / aq=3:0.80 Language : English Default : Yes Forced : No Color range : Limited Color primaries : BT.709 Transfer characteristics : BT.709 Matrix coefficients : BT.709 Audio #1 ID : 2 Format : AC-3 Format/Info : Audio Coding 3 Commercial name : Dolby Digital Codec ID : A_AC3 Duration : 1 h 36 min Bit rate mode : Constant Bit rate : 448 kb/s Channel(s) : 6 channels Channel layout : L R C LFE Ls Rs Sampling rate : 48.0 kHz Frame rate : 31.250 FPS (1536 SPF) Compression mode : Lossy Stream size : 309 MiB (7%) Title : Dub Мосфильм-Мастер Language : Russian Service kind : Complete Main Default : Yes Forced : No Dialog Normalization : -24 dB compr : -0.28 dB cmixlev : -3.0 dB surmixlev : -3 dB mixlevel : 285 dB roomtyp : 3 ltrtcmixlev : -3.0 dB ltrtsurmixlev : -3.0 dB lorocmixlev : -3.0 dB lorosurmixlev : -4.5 dB dialnorm_Average : -24 dB dialnorm_Minimum : -24 dB dialnorm_Maximum : -24 dB Audio #2 ID : 3 Format : AC-3 Format/Info : Audio Coding 3 Commercial name : Dolby Digital Codec ID : A_AC3 Duration : 1 h 36 min Bit rate mode : Constant Bit rate : 640 kb/s Channel(s) : 6 channels Channel layout : L R C LFE Ls Rs Sampling rate : 48.0 kHz Frame rate : 31.250 FPS (1536 SPF) Compression mode : Lossy Stream size : 441 MiB (10%) Title : Original Language : French Service kind : Complete Main Default : No Forced : No Dialog Normalization : -31 dB cmixlev : -4.5 dB surmixlev : -6 dB dialnorm_Average : -31 dB dialnorm_Minimum : -31 dB dialnorm_Maximum : -31 dB Text #1 ID : 4 Format : UTF-8 Codec ID : S_TEXT/UTF8 Codec ID/Info : UTF-8 Plain Text Duration : 1 h 9 min Bit rate : 0 b/s Frame rate : 0.000 FPS Count of elements : 2 Stream size : 79.0 Bytes (0%) Title : Forced Language : Russian Default : No Forced : No Text #2 ID : 5 Format : UTF-8 Codec ID : S_TEXT/UTF8 Codec ID/Info : UTF-8 Plain Text Duration : 1 h 32 min Bit rate : 136 b/s Frame rate : 0.337 FPS Count of elements : 1862 Stream size : 92.4 KiB (0%) Title : Full Language : Russian Default : No Forced : No Text #3 ID : 6 Format : UTF-8 Codec ID : S_TEXT/UTF8 Codec ID/Info : UTF-8 Plain Text Duration : 1 h 32 min Bit rate : 77 b/s Frame rate : 0.253 FPS Count of elements : 1398 Stream size : 52.0 KiB (0%) Title : Full Language : English Default : No Forced : No Text #4 ID : 7 Format : UTF-8 Codec ID : S_TEXT/UTF8 Codec ID/Info : UTF-8 Plain Text Duration : 1 h 32 min Bit rate : 92 b/s Frame rate : 0.287 FPS Count of elements : 1592 Stream size : 62.4 KiB (0%) Title : SDH Language : French Default : No Forced : No Menu 00:00:00.000 : en:Chapter 1 00:01:17.702 : en:Chapter 2 00:04:09.123 : en:Chapter 3 00:06:53.663 : en:Chapter 4 00:11:01.285 : en:Chapter 5 00:13:14.835 : en:Chapter 6 00:18:02.748 : en:Chapter 7 00:23:29.116 : en:Chapter 8 00:25:43.875 : en:Chapter 9 00:30:22.695 : en:Chapter 10 00:35:20.701 : en:Chapter 11 00:40:33.597 : en:Chapter 12 00:45:14.211 : en:Chapter 13 00:53:37.380 : en:Chapter 14 00:58:27.086 : en:Chapter 15 01:03:15.541 : en:Chapter 16 01:06:03.542 : en:Chapter 17 01:09:53.939 : en:Chapter 18 01:15:18.263 : en:Chapter 19 01:18:03.220 : en:Chapter 20 01:22:24.356 : en:Chapter 21 01:32:47.979 : en:Chapter 22
Релиз: Присоединяйся к: Кликай на баннеры.

Всего файлов в раздаче: 1 
Coup.de.chance.2023.DUB.BDRip.720p.x264.seleZen.mkv4.38 GB

Похожие раздачи по запросу - Великая
2024-06-30 magnet Великая ирония / Coup de chance (2023) BDRip от New-Team | D 1.47 GB ↑ 0 ↓ 1
2024-06-30 magnet Великая ирония / Coup de chance (2023) BDRemux 1080p | D 18.43 GB ↑ 0 ↓ 0
2024-06-19 magnet Великая Лилиан Холл / The Great Lillian Hall (2024) WEB-DLRip-AVC | L 1.87 GB ↑ 4 ↓ 0
2024-02-14 magnet Великая / Екатерина Великая [S02] (2023) WEBRip 2К7.72 GB ↑ 0 ↓ 0
2023-11-29 magnet Великая иллюзия / La grande illusion / Grand Illusion (1937) HDRip-AVC | P 2.19 GB ↑ 0 ↓ 0

Комментарии


Зарегистрируйтесь чтобы добавить комментарий
Торрент клиент
byTorrent - программа для загрузки торрент-файлов.

Скачать byTorrent.exe (1,5 МБ)

Скачать byTorrent.zip (0,6 МБ)

Поддержи torrent.by
российских рублей
(300 российских рублей это 4$)

Обратная связь rss

End game ©