↑↓torrent.by
Поиск
Логин:  Регистрация
Пароль:

Фуриоса: Хроники Безумного Макса / Furiosa: A Mad Max Saga (2024) UHD WEB-DL HEVC 2160p | 4K | Dolby Vision TV | D | Movie Dubbing, Red Head Sound

download Скачать торрент-файл   magnet Магнитная ссылка Размер: 27.00 GB Раздают: 0 Качают: 2 Добавлен: 2024-06-30 11:00
Пиры будут получены из сети DHT
Последний сидер был замечен вчера в 16:24
ДАННЫЙ РЕЛИЗ БЕЗ HDR СЛОЯ, ТОЛЬКО ДЛЯ УСТРОЙСТВ С ПОДДЕРЖКОЙ DOLBY VISION. Если ваше устройство без поддержки DOLBY VISION, изображение будет "фиолетовое", как на первом скриншоте Название: Фуриоса: Хроники Безумного Макса Оригинальное название: Furiosa: A Mad Max Saga Год выхода: 2024 Производство: Австралия, США / Warner Bros., Domain Entertainment, Kennedy Miller Mitchell Жанр: Фантастика, боевик, триллер, приключения Перевод: Профессиональный дублированный, неофициальный дублированный Продолжительность: 02:28:11 Режиссёр: Джордж Миллер В ролях: Аня Тейлор-Джой, Крис Хемсворт, Том Бёрк, Алила Браун, Джордж Шевцов, Лейчи Халм, Джон Ховард, Энгус Сэмпсон, Чарли Фрейзер, Эльза Патаки Описание: История похищения юной воительницы Фуриосы из Зелёных Земель, в результате которого девушка попадает в руки орды байкеров под предводительством Военачальника Дементуса. Пробираясь через Пустошь, они натыкаются на Цитадель, которой управляет Бессмертный Джо, и пока два тирана борются за господство, Фуриосе предстоит пережить множество испытаний, пытаясь найти путь домой. Формат: MPEG-4 Качество: WEB-DL 2160p Видео: HEVC / 24.2 Mbps / 3840x1608 / 0.164 Бит/(Пиксели*Кадры) / 23.976 fps Аудио 01: AC-3, 6 ch, 448 kbps | Русский, DUB | Movie Dubbing | Аудио 02: AC-3, 2 ch, 256 kbps | Русский, DUB | Red Head Sound | Аудио 03: E-AC-3, 6 ch, 384 kbps | Украинский, DUB | Postmodern | Аудио 04: E-AC3+Atmos, 6 ch, 768 kbps | Английский | Субтитры: Русские (Forced, Full), украинские (Forced), английские (Full, SDH) ДАННЫЙ РЕЛИЗ БЕЗ HDR СЛОЯ, ТОЛЬКО ДЛЯ УСТРОЙСТВ С ПОДДЕРЖКОЙ DOLBY VISION. Если ваше устройство без поддержки DOLBY VISION, изображение будет "фиолетовое", как на первом скриншоте
[+] MediainfoGeneral Format : MPEG-4 Format profile : Base Media Codec ID : isom (isom/dby1/iso2/mp41) File size : 27.0 GiB Duration : 2 h 28 min Overall bit rate mode : Variable Overall bit rate : 26.1 Mb/s Frame rate : 23.976 FPS Movie name : Furiosa: A Mad Max Saga (2024) by TheEqualizer Tagged date : 2024-06-29 21:41:05 UTC Writing application : Lavf60.3.100 Cover : Yes Video ID : 1 Format : HEVC Format/Info : High Efficiency Video Coding Format profile : Main 10@L5@High HDR format : Dolby Vision, Version 1.0, Profile 5, dvhe.05.06, BL+RPU, no metadata compression Codec ID : hev1 Codec ID/Info : High Efficiency Video Coding Duration : 2 h 28 min Bit rate : 24.2 Mb/s Width : 3 840 pixels Height : 1 608 pixels Display aspect ratio : 2.39:1 Frame rate mode : Constant Frame rate : 23.976 (24000/1001) FPS Color space : YUV Chroma subsampling : 4:2:0 Bit depth : 10 bits Bits/(Pixel*Frame) : 0.164 Stream size : 25.1 GiB (93%) Title : Furiosa: A Mad Max Saga Language : English Tagged date : 2024-06-29 21:41:05 UTC Menus : 15 Codec configuration box : hvcC+dvcC Audio #1 ID : 3 Format : AC-3 Format/Info : Audio Coding 3 Commercial name : Dolby Digital Codec ID : ac-3 Duration : 2 h 28 min Bit rate mode : Constant Bit rate : 448 kb/s Channel(s) : 6 channels Channel layout : L R C LFE Ls Rs Sampling rate : 48.0 kHz Frame rate : 31.250 FPS (1536 SPF) Compression mode : Lossy Stream size : 475 MiB (2%) Title : DUB | Movie Dubbing Language : Russian Service kind : Complete Main Default : Yes Alternate group : 1 Tagged date : 2024-06-29 21:41:05 UTC Menus : 15 Dialog Normalization : -31 dB cmixlev : -3.0 dB surmixlev : -3 dB dialnorm_Average : -31 dB dialnorm_Minimum : -31 dB dialnorm_Maximum : -31 dB Audio #2 ID : 4 Format : AC-3 Format/Info : Audio Coding 3 Commercial name : Dolby Digital Codec ID : ac-3 Duration : 2 h 28 min Bit rate mode : Constant Bit rate : 256 kb/s Channel(s) : 2 channels Channel layout : L R Sampling rate : 48.0 kHz Frame rate : 31.250 FPS (1536 SPF) Compression mode : Lossy Stream size : 271 MiB (1%) Title : DUB | Red Head Sound Language : Russian Service kind : Complete Main Default : No Alternate group : 1 Tagged date : 2024-06-29 21:41:05 UTC Menus : 15 Dialog Normalization : -31 dB compr : -0.28 dB ltrtcmixlev : -3.0 dB ltrtsurmixlev : -3.0 dB lorocmixlev : -3.0 dB lorosurmixlev : -3.0 dB dialnorm_Average : -31 dB dialnorm_Minimum : -31 dB dialnorm_Maximum : -31 dB Audio #3 ID : 5 Format : E-AC-3 Format/Info : Enhanced AC-3 Commercial name : Dolby Digital Plus Codec ID : ec-3 Duration : 2 h 28 min Bit rate mode : Constant Bit rate : 384 kb/s Channel(s) : 6 channels Channel layout : L R C LFE Ls Rs Sampling rate : 48.0 kHz Frame rate : 31.250 FPS (1536 SPF) Compression mode : Lossy Stream size : 407 MiB (1%) Title : DUB | Postmodern Language : Ukrainian Service kind : Complete Main Default : No Alternate group : 1 Tagged date : 2024-06-29 21:41:05 UTC Menus : 15 Dialog Normalization : -13 dB compr : 0.53 dB dialnorm_Average : -13 dB dialnorm_Minimum : -13 dB dialnorm_Maximum : -13 dB Audio #4 ID : 6 Format : E-AC-3 JOC Format/Info : Enhanced AC-3 with Joint Object Coding Commercial name : Dolby Digital Plus with Dolby Atmos Codec ID : ec-3 Duration : 2 h 28 min Bit rate mode : Constant Bit rate : 768 kb/s Channel(s) : 6 channels Channel layout : L R C LFE Ls Rs Sampling rate : 48.0 kHz Frame rate : 31.250 FPS (1536 SPF) Compression mode : Lossy Stream size : 814 MiB (3%) Title : Original | Amazon Language : English Service kind : Complete Main Default : No Alternate group : 1 Tagged date : 2024-06-29 21:41:05 UTC Menus : 15 Complexity index : Not present / 16 Number of dynamic objects : 15 Bed channel count : 1 channel Bed channel configuration : LFE Dialog Normalization : -27 dB compr : -0.28 dB dialnorm_Average : -27 dB dialnorm_Minimum : -27 dB dialnorm_Maximum : -27 dB Text #1 ID : 7 Format : Timed Text Muxing mode : sbtl Codec ID : tx3g Duration : 2 h 27 min Bit rate mode : Variable Bit rate : 5 b/s Frame rate : 0.243 FPS Stream size : 5.86 KiB (0%) Title : Forced | TheEqualizer Language : Russian Default : Yes Forced : Yes / No Alternate group : 3 Count of events : 1078 Menus : 15 Text #2 ID : 8 Format : Timed Text Muxing mode : sbtl Codec ID : tx3g Duration : 2 h 27 min Bit rate mode : Variable Bit rate : 5 b/s Frame rate : 0.244 FPS Stream size : 5.72 KiB (0%) Title : Forced | Official Language : Russian Default : No Forced : No Alternate group : 3 Count of events : 1082 Menus : 15 Text #3 ID : 9 Format : Timed Text Muxing mode : sbtl Codec ID : tx3g Duration : 2 h 17 min Bit rate mode : Variable Bit rate : 50 b/s Frame rate : 0.257 FPS Stream size : 50.1 KiB (0%) Title : Full | TheEqualizer Language : Russian Default : No Forced : No Alternate group : 3 Count of events : 1061 Menus : 15 Text #4 ID : 10 Format : Timed Text Muxing mode : sbtl Codec ID : tx3g Duration : 2 h 28 min Bit rate mode : Variable Bit rate : 45 b/s Frame rate : 0.223 FPS Stream size : 48.4 KiB (0%) Title : Full | Official Language : Russian Default : No Forced : No Alternate group : 3 Count of events : 989 Menus : 15 Text #5 ID : 11 Format : Timed Text Muxing mode : sbtl Codec ID : tx3g Duration : 2 h 17 min Bit rate mode : Variable Bit rate : 49 b/s Frame rate : 0.255 FPS Stream size : 49.8 KiB (0%) Title : Full | FOCS Language : Russian Default : No Forced : No Alternate group : 3 Count of events : 1054 Menus : 15 Text #6 ID : 12 Format : Timed Text Muxing mode : sbtl Codec ID : tx3g Duration : 2 h 24 min Bit rate mode : Variable Bit rate : 5 b/s Frame rate : 0.244 FPS Stream size : 5.56 KiB (0%) Title : Forced | Official Language : Ukrainian Default : No Forced : No Alternate group : 3 Count of events : 1059 Menus : 15 Text #7 ID : 13 Format : Timed Text Muxing mode : sbtl Codec ID : tx3g Duration : 2 h 17 min Bit rate mode : Variable Bit rate : 33 b/s Frame rate : 0.255 FPS Stream size : 32.9 KiB (0%) Title : Full | Amazon Language : English Default : No Forced : No Alternate group : 3 Count of events : 1050 Menus : 15 Text #8 ID : 14 Format : Timed Text Muxing mode : sbtl Codec ID : tx3g Duration : 2 h 17 min Bit rate mode : Variable Bit rate : 42 b/s Frame rate : 0.339 FPS Stream size : 42.8 KiB (0%) Title : SDH | Amazon Language : English Service kind : Hearing Impaired Default : No Forced : No Alternate group : 3 Count of events : 1401 Menus : 15 Menu #1 ID : 15 Format : Timed Text Codec ID : text Duration : 2 h 28 min Language : English Bit rate mode : CBR Menu For : 1,3,4,5,6,7,8,9,10,11,12,13,14 00:00:00.000 : Chapter 01 00:10:19.369 : Chapter 02 00:20:10.627 : Chapter 03 00:29:00.240 : Chapter 04 00:40:06.656 : Chapter 05 00:53:12.692 : Chapter 06 01:00:35.635 : Chapter 07 01:19:05.745 : Chapter 08 01:28:55.919 : Chapter 09 01:40:17.684 : Chapter 10 01:49:44.751 : Chapter 11 01:59:16.906 : Chapter 12 02:06:08.693 : Chapter 13 02:17:44.681 : Chapter 14 Bit rate mode : Constant Menu #2 00:00:00.000 : Chapter 01 00:10:19.369 : Chapter 02 00:20:10.627 : Chapter 03 00:29:00.240 : Chapter 04 00:40:06.656 : Chapter 05 00:53:12.692 : Chapter 06 01:00:35.635 : Chapter 07 01:19:05.745 : Chapter 08 01:28:55.919 : Chapter 09 01:40:17.684 : Chapter 10 01:49:44.751 : Chapter 11 01:59:16.906 : Chapter 12 02:06:08.693 : Chapter 13 02:17:44.681 : Chapter 14
[+] Скриншоты

Всего файлов в раздаче: 1 
Furiosa.A.Mad.Max.Saga.2024.2160p.WEB-DL.DV-TheEqualizer.mp427.00 GB

Похожие раздачи по запросу - Фуриоса
2024-07-15 magnet Фуриоса: Хроники Безумного Макса / Фуріоза: Шалений Макс. Сага / Furiosa: A Mad Max Saga (2024) WEB-DL-HEVC 2160p | 4K | SDR | D | UKR 26.45 GB ↑ 0 ↓ 1
2024-07-06 magnet Фуриоса: Хроники Безумного Макса / Furiosa: A Mad Max Saga (2024) UHD WEB-DL 2160p | 4K | HDR | Dolby Vision Profile 8 | D, P, A 31.04 GB ↑ 2 ↓ 7
2024-07-03 magnet Фуриоса: Хроники Безумного Макса / Furiosa: A Mad Max Saga (2024) WEB-DLRip-AVC | КПК | D, P | Red Head Sound, HDrezka Studio 805.80 MB ↑ 0 ↓ 0
2024-07-03 magnet Фуриоса: Хроники Безумного Макса / Furiosa: A Mad Max Saga [2024, фантастика, боевик, WEB-DLRip-AVC] Dub 2.18 GB ↑ 0 ↓ 0
2024-07-01 magnet Фуриоса: Хроники Безумного Макса / Furiosa: A Mad Max Saga (2024) WEB-DLRip 1080p | D, P, A | Movie Dubbing, RHS, LostFilm, HDrezka, Jaskier, TVShows, Яроцкий 22.53 GB ↑ 1 ↓ 6
2024-06-30 magnet Фуриоса: Хроники Безумного Макса / Furiosa: A Mad Max Saga (2024) WEB-DLRip от DoMiNo & селезень | D | Red Head Sound 1.47 GB ↑ 0 ↓ 2
2024-06-30 magnet Фуриоса: Хроники Безумного Макса / Furiosa: A Mad Max Saga (2024) WEB-DL 1080p | D, P | Red Head Sound, Movie Dubbing, HDrezka Studio, Jaskier 11.97 GB ↑ 0 ↓ 0

Комментарии


Зарегистрируйтесь чтобы добавить комментарий
Торрент клиент
byTorrent - программа для загрузки торрент-файлов.

Скачать byTorrent.exe (1,5 МБ)

Скачать byTorrent.zip (0,6 МБ)

Поддержи torrent.by
российских рублей
(300 российских рублей это 4$)

Обратная связь rss

End game ©