↑↓torrent.by
Поиск
Логин:  Регистрация
Пароль:

Дикий мир Магеллана / El Salvaje Mundo de Magallanes (2023) HDTV 1080i | P1

download Скачать торрент-файл   magnet Магнитная ссылка Размер: 3.31 GB Добавлен: 2024-06-30 11:00
Пиры будут получены из сети DHT
Последний сидер был замечен 2024-07-05 05:27
Информация о фильме Название: Дикий мир Магеллана Оригинальное название: El Salvaje Mundo de Magallanes Год выхода: 2023 Жанр: Документальный, природа, флора, фауна Режиссер: Антонио Санчес Галей О фильме: На борту копии корабля "Виктория" мы отправимся в самые отдалённые и скрытые уголки нашей планеты - те, которые 500 лет назад посетили Магеллан и его команда во время первого в истории кругосветного путешествия. Там мы откроем тайны этого последнего рая, места, полного жизни и природы в ее чистейшей форме. Используя новейшие технологии, мы исследуем более десятка различных Эдемов, демонстрируя поведение самых знаковых животных, населяющих эти отдаленные места: загадочные леса Бразилии, Филиппины и Борнео, край света в Патагонии, последняя граница африканского континента, мыс Доброй Надежды и отдаленные острова южной части Тихого океана. Страна: Испания Студия: Green Dreams Films Entertainment Продолжительность: 00:51:52 Перевод: Профессиональный (одноголосый закадровый) Файл Кодек: AVC/H.264 Качество: HDTV 1080i Видео: 1920x1080 (16:9), 25 fps, AVC (H.264), High@L4, 8284 kbps, 0.160 bit/pixel Звук: Русский 48 kHz, MPEG Layer 2, 2 ch, 192 kbps Испанский 48 kHz, MPEG Layer 2, 2 ch, 192 kbps Семпл
[+] MediaInfoComplete name : F:НаладкиДикий мир Магеллана.ts Format : MPEG-TS File size : 3.31 GiB Duration : 51 min 52 s Overall bit rate mode : Variable Overall bit rate : 9 122 kb/s Frame rate : 25.000 FPS Video ID : 305 (0x131) Menu ID : 17105 (0x42D1) Format : AVC Format/Info : Advanced Video Codec Format profile : High@L4 Format settings : CABAC / 4 Ref Frames Format settings, CABAC : Yes Format settings, Reference : 4 frames Codec ID : 27 Duration : 51 min 52 s Bit rate : 8 284 kb/s Width : 1 920 pixels Height : 1 080 pixels Display aspect ratio : 16:9 Active Format Deion : Letterbox 16:9 image Frame rate : 25.000 FPS Standard : Component Color space : YUV Chroma subsampling : 4:2:0 Bit depth : 8 bits Scan type : Interlaced Scan type, store method : Separated fields Scan order : Top Field First Bits/(Pixel*Frame) : 0.160 Stream size : 3.00 GiB (91%) Color range : Limited Color primaries : BT.709 Transfer characteristics : BT.709 Matrix coefficients : BT.709 Audio #1 ID : 405 (0x195) Menu ID : 17105 (0x42D1) Format : MPEG Audio Format version : Version 1 Format profile : Layer 2 Codec ID : 3 Duration : 51 min 52 s Bit rate mode : Constant Bit rate : 192 kb/s Channel(s) : 2 channels Sampling rate : 48.0 kHz Frame rate : 41.667 FPS (1152 SPF) Compression mode : Lossy Stream size : 71.2 MiB (2%) Language : Russian Audio #2 ID : 425 (0x1A9) Menu ID : 17105 (0x42D1) Format : MPEG Audio Format version : Version 1 Format profile : Layer 2 Codec ID : 3 Duration : 51 min 52 s Bit rate mode : Constant Bit rate : 192 kb/s Channel(s) : 2 channels Sampling rate : 48.0 kHz Frame rate : 41.667 FPS (1152 SPF) Compression mode : Lossy Stream size : 71.2 MiB (2%) Language : English Text ID : 505 (0x1F9)-888 Menu ID : 17105 (0x42D1) Format : Teletext Subtitle Language : Russian Other ID : 505 (0x1F9)-100 Menu ID : 17105 (0x42D1) Format : Teletext Language : Russian
[+] Скриншоты
Релиз от: kyba

Всего файлов в раздаче: 1 
Дикий мир Магеллана.ts3.31 GB

Похожие раздачи по запросу - Дикий
2024-06-24 magnet Дикий: Война зверей / Deo waildeu: yasudeului jeonjaeng / The Wild (2023) WEB-DLRip-AVC от New-Team | D, P2 | Локализованная версия 1.67 GB ↑ 0 ↓ 0
2024-06-23 magnet Дикий: Война зверей / The Wild / Deo waildeu: yasudeului jeonjaeng (2023) WEB-DL 1080p | ViruseProject 1К4.91 GB ↑ 0 ↓ 0
2024-03-21 magnet Дикий пляж / Savage Beach (1989) HDRip | A 745.67 MB ↑ 0 ↓ 0

Комментарии


Зарегистрируйтесь чтобы добавить комментарий
Торрент клиент
byTorrent - программа для загрузки торрент-файлов.

Скачать byTorrent.exe (1,5 МБ)

Скачать byTorrent.zip (0,6 МБ)

Поддержи torrent.by
российских рублей
(300 российских рублей это 4$)

Обратная связь rss

End game ©