↑↓torrent.by
Поиск
Логин:  Регистрация
Пароль:

Последний подвиг / Кастер на Западе / Custer of the West (1967) BDRip-AVC | P

download Скачать торрент-файл   magnet Магнитная ссылка Размер: 2.18 GB Раздают: 1 Качают: 0 Добавлен: il68k 2024-06-30 14:44
Пиры будут получены из сети DHT
Последний сидер был замечен сегодня в 13:11
Информация о фильме Название: Последний подвиг / Кастер на Западе Оригинальное название: Custer of the West Год выпуска: 1967 Жанр: драма, вестерн, военный, биография, история Режиссер: Роберт Сьодмак В ролях: Роберт Шоу, Мэри Юр, Тай Хардин, Джеффри Хантер, Лоуренс Тирни, Марк Лоуренс, Кирон Мур, Чарльз Сталмакер, Роберт Холл, Джек Гэскинс О фильме: В соответствии со своим служебным статусом в гражданской войне, генерал Джордж Кастер направляется на запад, чтобы принять командование над 7-й кавалерийской дивизией. По политическим мотивам генерал Шэридан направляет его вывести индейское племя из их резервации, вследствии того, что на их территории нашли золото... Страна: США, Великобритания, Франция, Испания Студия: Cinerama Productions Corp., Security Pictures Inc. Продолжительность: 02:21:18 Перевод: Профессиональный (многоголосый закадровый) | DVD Магия Файл Кодек: Н.264 Качество: BDRip-AVC |Custer.of.the.West.1967.1080p.BluRay.REMUX.AVC.FLAC.2.0-EPSiLON| Видео: MPEG-4 AVC, 1824 kbps, 1024x436 (2.35:1), 23.976 fps, 0.170 bit/pixel, High@L4.1 Звук 1: 48 kHz, AC3 Dolby Digital, 2/0 (L, R) ch, ~192 kbps | DVD Магия Звук 2: 48 kHz, AC3 Dolby Digital, 2/0 (L, R) ch, ~192 kbps | Английский Субтитры: английские Семпл
[+] Скриншоты
[+] MediaInfo raw : 1024x436p 1:1 @ 24000/1001 fps (cfr) x264 : using SAR=1/1 x264 : using cpu capabilities: MMX2 SSE2Fast SSSE3 SSE4.2 AVX FMA3 BMI2 AVX2 x264 : profile High, level 4.1, 4:2:0, 8-bit x264 : frame I:1320 Avg QP:20.54 size: 56659 x264 : frame P:46112 Avg QP:22.25 size: 19889 x264 : frame B:155464 Avg QP:23.50 size: 5981 x264 : consecutive B-frames: 2.1% 2.6% 6.3% 37.2% 14.7% 24.3% 5.4% 4.9% 1.4% 0.4% 0.2% 0.2% 0.1% 0.0% 0.3% x264 : mb I I16..4: 2.5% 75.8% 21.7% x264 : mb P I16..4: 0.6% 9.4% 2.5% P16..4: 45.4% 24.0% 15.0% 0.0% 0.0% skip: 3.0% x264 : mb B I16..4: 0.1% 1.1% 0.4% B16..8: 38.7% 10.6% 3.1% direct: 6.2% skip:39.9% L0:45.2% L1:41.8% BI:13.0% x264 : 8x8 transform intra:73.7% inter:62.1% x264 : direct mvs spatial:98.1% temporal:1.9% x264 : coded y, uvDC, uvAC intra: 86.0% 68.1% 27.8% inter: 23.1% 23.3% 3.0% x264 : i16 v, h, dc, p: 19% 18% 11% 53% x264 : i8 v, h, dc, ddl, ddr, vr, hd, vl, hu: 13% 9% 6% 8% 13% 12% 14% 10% 14% x264 : i4 v, h, dc, ddl, ddr, vr, hd, vl, hu: 26% 6% 4% 7% 12% 11% 13% 9% 12% x264 : i8c dc, h, v, p: 39% 29% 20% 13% x264 : Weighted P-Frames: Y:9.1% UV:2.8% x264 : ref P L0: 42.9% 14.5% 15.8% 5.5% 5.0% 3.3% 3.4% 1.7% 1.7% 1.3% 1.4% 1.1% 1.2% 1.1% 0.1% 0.0% x264 : ref B L0: 67.0% 12.0% 6.4% 3.4% 2.5% 2.2% 1.8% 1.1% 1.0% 0.9% 0.8% 0.6% 0.3% x264 : ref B L1: 93.4% 6.6% x264 : kb/s:1823.72 x264 : encoded 202896 frames, 12.57 fps, 1823.72 kb/s ===================================================================== General Unique ID: 262997711860872834862969541331615969389 (0xC5DB8450CB4176A6D329C432B9FF706D) Complete name: D:\Custer.of.the.West.1967.BDRip.AVC.mkv Format: Matroska Format version: Version 4 File size: 2.18 GiB Duration: 2 h 21 min Overall bit rate: 2 206 kb/s Frame rate: 23.976 FPS Movie name: Custer of the West (1967) BDRip-AVC _ vitolinform Encoded date: 2024-06-30 09:44:27 UTC Writing application: mkvmerge v85.0 ('Shame For You') 64-bit Writing library: libebml v1.4.5 + libmatroska v1.7.1 Attachments: poster.jpg / log.log Video ID: 1 Format: AVC Format/Info: Advanced Video Codec Format profile: High@L4.1 Format settings: CABAC / 14 Ref Frames Format settings, CABAC: Yes Format settings, Reference frames: 14 frames Codec ID: V_MPEG4/ISO/AVC Duration: 2 h 21 min Bit rate: 1 824 kb/s Width: 1 024 pixels Height: 436 pixels Display aspect ratio: 2.35:1 Frame rate mode: Constant Frame rate: 23.976 (24000/1001) FPS Color space: YUV Chroma subsampling: 4:2:0 Bit depth: 8 bits Scan type: Progressive Bits/(Pixel*Frame): 0.170 Stream size: 1.80 GiB (83%) Title: Последний подвиг / Кастер на Западе / Custer of the West (1967) Writing library: x264 core 164 r3182 be4f020 Encoding settings: cabac=1 / ref=14 / deblock=1:-3:-3 / analyse=0x3:0x113 / me=umh / subme=10 / psy=1 / psy_rd=1.00:0.05 / mixed_ref=1 / me_range=32 / chroma_me=1 / trellis=2 / 8x8dct=1 / cqm=0 / deadzone=21, 11 / fast_pskip=0 / chroma_qp_offset=-3 / threads=12 / lookahead_threads=3 / sliced_threads=0 / nr=0 / decimate=0 / interlaced=0 / bluray_compat=0 / constrained_intra=0 / bframes=14 / b_pyramid=2 / b_adapt=2 / b_bias=0 / direct=3 / weightb=1 / open_gop=0 / weightp=2 / keyint=240 / keyint_min=24 / scenecut=40 / intra_refresh=0 / rc_lookahead=60 / rc=2pass / mbtree=0 / bitrate=1824 / ratetol=1.0 / qcomp=0.60 / qpmin=0 / qpmax=69 / qpstep=4 / cplxblur=20.0 / qblur=0.5 / vbv_maxrate=50000 / vbv_bufsize=62500 / nal_hrd=none / filler=0 / ip_ratio=1.40 / pb_ratio=1.30 / aq=1:1.00 Language: English Default: Yes Forced: No Color range: Limited Color primaries: BT.709 Transfer characteristics: BT.709 Matrix coefficients: BT.709 Audio #1 ID: 2 Format: AC-3 Format/Info: Audio Coding 3 Commercial name: Dolby Digital Codec ID: A_AC3 Duration: 2 h 21 min Bit rate mode: Constant Bit rate: 192 kb/s Channel(s): 2 channels Channel layout: L R Sampling rate: 48.0 kHz Frame rate: 31.250 FPS (1536 SPF) Compression mode: Lossy Stream size: 194 MiB (9%) Title: MVO | DVD Магия Language: Russian Service kind: Complete Main Default: Yes Forced: No Audio #2 ID: 3 Format: AC-3 Format/Info: Audio Coding 3 Commercial name: Dolby Digital Codec ID: A_AC3 Duration: 2 h 21 min Bit rate mode: Constant Bit rate: 192 kb/s Channel(s): 2 channels Channel layout: L R Sampling rate: 48.0 kHz Frame rate: 31.250 FPS (1536 SPF) Compression mode: Lossy Stream size: 194 MiB (9%) Title: English Language: English Service kind: Complete Main Default: No Forced: No Text ID: 4 Format: UTF-8 Codec ID: S_TEXT/UTF8 Codec ID/Info: UTF-8 Plain Text Duration: 2 h 16 min Bit rate: 37 b/s Frame rate: 0.144 FPS Count of elements: 1178 Stream size: 37.8 KiB (0%) Title: English Language: English Default: No Forced: No Menu 00:00:00.000: en:Chapter 1 00:12:19.322: en:Chapter 2 00:28:58.320: en:Chapter 3 00:46:09.141: en:Chapter 4 01:08:49.083: en:Chapter 5 01:34:11.354: en:Chapter 6 01:52:21.318: en:Chapter 7 02:05:55.006: en:Chapter 8
Rip by vitolinform

Всего файлов в раздаче: 1 
Custer.of.the.West.1967.BDRip.AVC.mkv2.18 GB

Похожие раздачи по запросу - Последний
Вчера magnet Последний герой. Русский сезон [01-04] (2024) WEBRip 720p от от Files-х 8.83 GB ↑ 0 ↓ 1
Вчера magnet Последний герой. Русский сезон [01-04] (2024) WEBRip от от Files-х 4.38 GB ↑ 0 ↓ 0
2024-07-14 magnet Последний герой. Русский сезон [01-03] (2024) WEBRip 720p от от Files-х 7.04 GB ↑ 0 ↓ 0
2024-07-14 magnet Последний герой. Русский сезон [01-03] (2024) WEBRip от от Files-х 3.42 GB ↑ 0 ↓ 0
2024-07-13 magnet Последний секрет Мастера [01-26 из 26] (2010) WEBRip-AVC 17.22 GB ↑ 0 ↓ 0
2024-07-11 magnet Городские легенды 2: Последний отрезок / Urban Legends: Final Cut (2000) WEB-DL 1080p | P, P2, A | Open Matte 6.33 GB ↑ 0 ↓ 0
2024-07-10 magnet Последний герой. Русский сезон [01-02] (2024) WEBRip от от Files-х 2.46 GB ↑ 0 ↓ 0

Комментарии


Зарегистрируйтесь чтобы добавить комментарий
Торрент клиент
byTorrent - программа для загрузки торрент-файлов.

Скачать byTorrent.exe (1,5 МБ)

Скачать byTorrent.zip (0,6 МБ)

Поддержи torrent.by
российских рублей
(300 российских рублей это 4$)

Обратная связь rss

End game ©