↑↓torrent.by
Поиск
Логин:  Регистрация
Пароль:

На автомате [01х01-05 из 08] (2024) WEB-DLRip-AVC от Generalfilm | КПК

download Скачать торрент-файл   magnet Магнитная ссылка Размер: 727.52 MB Добавлен: 2024-06-30 17:00
Пиры будут получены из сети DHT
Последний сидер был замечен 2024-07-01 12:15
Информация о фильме Оригинальное название: На автомате Год выпуска: 2024 Жанр: Комедия, криминал Режиссер: Борис Акопов В ролях: Слава Копейкин, Денис Косиков, Маргарита Галич, Агния Дитковските, Николай Шрайбер, Александра Урсуляк, Артур Бесчастный, Владимир Майзингер, Максим Стоянов, Иван Добронравов О сериале: Каждый день братьев-подростков Ромы и Жени проходит одинаково, на автомате: будильник, учёба, сигаретка за гаражом, склад с оружием... стоп, что? Парни решают, что это шанс быстро срубить лёгкие деньги, ведь надо всего-то продать автоматы в даркнете. Но где оружие, там и опасные люди - тут-то и начинается самое интересное. Очень скоро в истории оказываются замешаны все жители городка: мать-одиночка Светлана, хозяин ломбарда Альберт, тату-мастер Лёля, полицейский Басов, его дочь-блогерка Милена, а также столичные бандиты. Страна: Россия Студия: Кинокомпания "Flagman Film Company", "Kinch", "Марс Медиа Энтертейнмент", "Студия Плюс" Продолжительность: 5 x ~ 00:29:00 Перевод: Не требуется Файл Формат: MP4 Качество: WEB-DLRip-AVC Видео: MPEG-4 AVC (x264), 640x272, ~ 500 kbps, 25.000 fps Аудио: AAC LC, 48.0 KHz, 2 ch, 128 Kbps Субтитры: Русские, внешние Внимание! Присутствует ненормативная лексика
[+] Скриншоты
[+] MIComplete name : D:киноNa.Avtomate.S01.2024.WEB-DLRip-AVC.KPK.GFNa.Avtomate.s01e02.2024.WEB-DLRip-AVC.KPK.GF.mp4 Format : MPEG-4 Codec ID : M4V (isom/iso2/avc1) File size : 156 MiB Duration : 34mn 23s Overall bit rate mode : Variable Overall bit rate : 634 Kbps Writing application : Lavf53.19.0 Video ID : 1 Format : AVC Format/Info : Advanced Video Codec Format profile : High@L4.1 Format settings, CABAC : Yes Format settings, ReFrames : 8 frames Codec ID : avc1 Codec ID/Info : Advanced Video Coding Duration : 34mn 23s Bit rate : 500 Kbps Width : 640 pixels Height : 272 pixels Display aspect ratio : 2.35:1 Frame rate mode : Constant Frame rate : 25.000 fps Color space : YUV Chroma subsampling : 4:2:0 Bit depth : 8 bits Scan type : Progressive Bits/(Pixel*Frame) : 0.115 Stream size : 123 MiB (79%) Writing library : x264 core 146 r2538 121396c Encoding settings : cabac=1 / ref=8 / deblock=1:-1:-1 / analyse=0x3:0x133 / me=umh / subme=10 / psy=1 / psy_rd=1.00:0.00 / mixed_ref=1 / me_range=24 / chroma_me=1 / trellis=2 / 8x8dct=1 / cqm=0 / deadzone=21,11 / fast_pskip=1 / chroma_qp_offset=-2 / threads=3 / lookahead_threads=1 / sliced_threads=0 / nr=0 / decimate=1 / interlaced=0 / bluray_compat=0 / constrained_intra=0 / bframes=8 / b_pyramid=2 / b_adapt=2 / b_bias=0 / direct=3 / weightb=1 / open_gop=0 / weightp=2 / keyint=250 / keyint_min=126 / scenecut=40 / intra_refresh=0 / rc_lookahead=40 / rc=2pass / mbtree=1 / bitrate=500 / ratetol=1.0 / qcomp=0.60 / qpmin=0 / qpmax=69 / qpstep=4 / cplxblur=20.0 / qblur=0.5 / ip_ratio=1.40 / aq=1:1.00 Menus : 3 Audio ID : 2 Format : AAC Format/Info : Advanced Audio Codec Format profile : LC Codec ID : 40 Duration : 34mn 23s Bit rate mode : Variable Bit rate : 128 Kbps Channel(s) : 2 channels Channel positions : Front: L R Sampling rate : 48.0 KHz Frame rate : 46.875 fps (1024 spf) Compression mode : Lossy Stream size : 31.5 MiB (20%) Default : Yes Alternate group : 1 Menus : 3
Релиз от:

Всего файлов в раздаче: 10 
Na.Avtomate.s01e01.2024.WEB-DLRip-AVC.KPK.GF.SDH.srt40.60 kB
Na.Avtomate.s01e01.2024.WEB-DLRip-AVC.KPK.GF.mp4132.72 MB
Na.Avtomate.s01e02.2024.WEB-DLRip-AVC.KPK.GF.SDH.srt54.59 kB
Na.Avtomate.s01e02.2024.WEB-DLRip-AVC.KPK.GF.mp4155.88 MB
Na.Avtomate.s01e03.2024.WEB-DLRip-AVC.KPK.GF.SDH.srt52.52 kB
Na.Avtomate.s01e03.2024.WEB-DLRip-AVC.KPK.GF.mp4150.86 MB
Na.Avtomate.s01e04.2024.WEB-DLRip-AVC.KPK.GF.SDH.srt45.88 kB
Na.Avtomate.s01e04.2024.WEB-DLRip-AVC.KPK.GF.mp4153.22 MB
Na.Avtomate.s01e05.2024.WEB-DLRip-AVC.KPK.GF.SDH.srt43.08 kB
Na.Avtomate.s01e05.2024.WEB-DLRip-AVC.KPK.GF.mp4134.61 MB

Похожие раздачи по запросу - автомате
2024-07-20 magnet На автомате [S01] (2024) WEB-DLRip-AVC от Generalfilm | КПК 1.10 GB ↑ 1 ↓ 0
2024-07-18 magnet На автомате [S01] (2024) WEBRip-HEVC 2160p | 4K | SDR 20.03 GB ↑ 0 ↓ 0
2024-07-17 magnet На автомате [S01] (2024) WEB-DL 720p от ExKinoRay 6.34 GB ↑ 0 ↓ 0
2024-07-17 magnet На автомате [01х01-08 из 08] (2024) WEB-DLRip от Files-x 3.48 GB ↑ 0 ↓ 0
2024-07-17 magnet На автомате [S01] (2024) WEBRip-HEVC 2160p | 4K | HDR 20.53 GB ↑ 0 ↓ 0
2024-07-17 magnet На автомате [S01] (2024) WEBRip 1080p от ExKinoRay 7.82 GB ↑ 0 ↓ 0
2024-07-17 magnet На автомате [S01] (2024) WEBRip 1080p 10.70 GB ↑ 0 ↓ 0

Комментарии


Зарегистрируйтесь чтобы добавить комментарий
Торрент клиент
byTorrent - программа для загрузки торрент-файлов.

Скачать byTorrent.exe (1,5 МБ)

Скачать byTorrent.zip (0,6 МБ)

Поддержи torrent.by
российских рублей
(300 российских рублей это 4$)

Обратная связь rss

End game ©