↑↓torrent.by
Поиск
Логин:  Регистрация
Пароль:

Пацаны / The Boys [04x01-05 из 08] (2024) WEB-DLRip-AVC | HDrezka Studio, NewStudio

download Скачать торрент-файл   magnet Магнитная ссылка Размер: 4.91 GB Добавлен: 2024-06-30 17:00
Пиры будут получены из сети DHT
Последний сидер был замечен 2024-07-09 18:22
Информация о фильме Название: Пацаны Оригинальное название: The Boys Год выхода: 2024 Жанр: Фантастика, боевик, комедия, криминал Режиссер: Филип Сгриккиа, Джулиан Холмс В ролях: Карл Урбан, Джек Куэйд, Энтони Старр, Эрин Мориарти, Джесси Ашер, Лаз Алонсо, Чейс Кроуфорд, Томер Капон, Карен Фукухара, Нэйтан Митчелл О фильме: Действие сериала разворачивается в мире, где существуют супергерои. Именно они являются настоящими звёздами. Их все знают и обожают. Но за идеальным фасадом скрывается гораздо более мрачный мир наркотиков и секса, а большинство героев - в жизни не самые приятные люди. Для контроля за супергероями ЦРУ создаёт специальный отряд, неофициально известный как «Пацаны», суровые члены которого всегда готовы поставить зазнавшегося героя на место самым жестоким способом. Страна: США Продолжительность: ~01:00:00 серия Перевод 1: Профессиональный (многоголосый, закадровый) HDrezka Studio Перевод 2: Профессиональный (многоголосый, закадровый) NewStudio Файл Кодек: MKV Качество: WEB-DLRip-AVC Видео: AVC, 1024x424 (2,40:1), 1800 kbps (0.173 b/px), 23.976 fps Звук: Звук 1: AC3, 192 kbps (CBR), 48.0 KHz (16 bits), 2 ch, Russian |Многоголосый закадровый, HDrezka Studio 18+ Звук 2: AC3, 192 kbps (CBR), 48.0 KHz (16 bits), 2 ch, Russian |Многоголосый закадровый, NewStudio 18+ Субтитры: Русские (Forced) РЕКЛАМЫ НЕТ
[+] MediaInfoОбщее Уникальный идентификатор : 182867136524229541408993937612401362923 (0x8992EDEDA8AA550BF29F3064309547EB) Полное имя : E:СЕРИАЛЫThe.Boys.S04.WEB-DLRip-AVCThe.Boys.S04E01.WEB-DLRip-AVC.TR.mkv Формат : Matroska Версия формата : Version 4 Размер файла : 1 017 Мбайт Продолжительность : 1 ч. 5 м. Общий поток : 2 184 Кбит/сек Частота кадров : 23,976 кадра/сек Дата кодирования : 2024-06-18 10:28:16 UTC Программа кодирования : mkvmerge v45.0.0 ('Heaven in Pennies') 64-bit Библиотека кодирования : libebml v1.3.10 + libmatroska v1.5.2 Видео Идентификатор : 1 Формат : AVC Формат/Информация : Advanced Video Codec Профиль формата : High@L4.1 Настройки формата : CABAC / 9 Ref Frames Параметр CABAC формата : Да Параметр RefFrames формата : 9 кадров Идентификатор кодека : V_MPEG4/ISO/AVC Продолжительность : 1 ч. 5 м. Битрейт : 1 800 Кбит/сек Ширина : 1 024 пикселя Высота : 424 пикселя Соотношение сторон : 2,40:1 Режим частоты кадров : Постоянный Частота кадров : 23,976 (24000/1001) кадра/сек Цветовое пространство : YUV Субдискретизация насыщенности : 4:2:0 Битовая глубина : 8 бит Тип развёртки : Прогрессивная Бит/(Пиксели*Кадры) : 0.173 Размер потока : 837 Мбайт (82%) Библиотека кодирования : x264 core 146 r2538 121396c Настройки программы : cabac=1 / ref=9 / deblock=1:-2:-1 / analyse=0x3:0x113 / me=umh / subme=10 / psy=1 / psy_rd=1.00:0.15 / mixed_ref=1 / me_range=32 / chroma_me=1 / trellis=2 / 8x8dct=1 / cqm=0 / deadzone=21,11 / fast_pskip=0 / chroma_qp_offset=-3 / threads=30 / lookahead_threads=3 / sliced_threads=0 / nr=0 / decimate=1 / interlaced=0 / bluray_compat=0 / constrained_intra=0 / bframes=8 / b_pyramid=2 / b_adapt=2 / b_bias=0 / direct=1 / weightb=1 / open_gop=0 / weightp=2 / keyint=240 / keyint_min=23 / scenecut=40 / intra_refresh=0 / rc_lookahead=40 / rc=2pass / mbtree=0 / bitrate=1800 / ratetol=1.0 / qcomp=0.60 / qpmin=0 / qpmax=69 / qpstep=4 / cplxblur=20.0 / qblur=0.5 / vbv_maxrate=14000 / vbv_bufsize=14000 / nal_hrd=none / filler=0 / ip_ratio=1.40 / pb_ratio=1.30 / aq=1:1.00 Default : Да Forced : Нет Аудио #1 Идентификатор : 2 Формат : AC-3 Формат/Информация : Audio Coding 3 Коммерческое название : Dolby Digital Идентификатор кодека : A_AC3 Продолжительность : 1 ч. 5 м. Вид битрейта : Постоянный Битрейт : 192 Кбит/сек Каналы : 2 канала Channel layout : L R Частота : 48,0 КГц Частота кадров : 31,250 кадров/сек (1536 SPF) Метод сжатия : С потерями Размер потока : 89,4 Мбайт (9%) Заголовок : HDR 18+ Язык : Russian Service kind : Complete Main Default : Да Forced : Нет Аудио #2 Идентификатор : 3 Формат : AC-3 Формат/Информация : Audio Coding 3 Коммерческое название : Dolby Digital Идентификатор кодека : A_AC3 Продолжительность : 1 ч. 5 м. Вид битрейта : Постоянный Битрейт : 192 Кбит/сек Каналы : 2 канала Channel layout : L R Частота : 48,0 КГц Частота кадров : 31,250 кадров/сек (1536 SPF) Метод сжатия : С потерями Размер потока : 89,4 Мбайт (9%) Заголовок : NewStudio18+ Язык : Russian Service kind : Complete Main Default : Нет Forced : Нет Текст Идентификатор : 4 Формат : UTF-8 Идентификатор кодека : S_TEXT/UTF8 Идентификатор кодека/Информация : UTF-8 Plain Text Продолжительность : 58 м. 53 с. Битрейт : 4 бит/сек Частота кадров : 0,012 кадр/сек Count of elements : 42 Размер потока : 1,95 Кбайт (0%) Заголовок : fors Язык : Russian Default : Да Forced : Да
[+] Скриншоты

Всего файлов в раздаче: 5 
The.Boys.S04E01.WEB-DLRip-AVC.TR.mkv1017.00 MB
The.Boys.S04E02.WEB-DLRip-AVC.TR.mkv966.54 MB
The.Boys.S04E03.WEB-DLRip-AVC.TR.mkv944.42 MB
The.Boys.S04E04.WEB-DLRip-AVC.TR.mkv1.01 GB
The.Boys.S04E05.WEB-DLRip-AVC.TR.mkv1.04 GB

Похожие раздачи по запросу - Пацаны
Вчера magnet Пацаны / The Boys [S04] (2024) WEB-DLRip-AVC | HDrezka Studio, NewStudio 7.94 GB ↑ 0 ↓ 6
Вчера magnet Пацаны / The Boys [S04] (2024) WEB-DL 1080p | D, P, P2 37.58 GB ↑ 0 ↓ 54
Вчера magnet Пацаны / The Boys [S04] (2024) UHD WEB-DL-HEVC 2160p | 4K | HDR | D, P, P2 57.88 GB ↑ 0 ↓ 19
2024-07-19 magnet Пацаны / The Boys [S04] (2024) WEBRip от Kerob | L 5.06 GB ↑ 0 ↓ 0
2024-07-19 magnet Пацаны / The Boys [S04] (2024) WEB-DL-HEVC 2160p от Kerob | 4K | HDR | L 65.49 GB ↑ 0 ↓ 8
2024-07-19 magnet Пацаны / The Boys [01-04x01-31 из 32] (2019-2024) WEB-DLRip | Кубик в кубе 25.97 GB ↑ 0 ↓ 6
2024-07-18 magnet Пацаны / The Boys [04x01-07 из 08] (2024) WEB-DL 1080p | D | Red Head Sound 25.75 GB ↑ 0 ↓ 0

Комментарии


Зарегистрируйтесь чтобы добавить комментарий
Торрент клиент
byTorrent - программа для загрузки торрент-файлов.

Скачать byTorrent.exe (1,5 МБ)

Скачать byTorrent.zip (0,6 МБ)

Поддержи torrent.by
российских рублей
(300 российских рублей это 4$)

Обратная связь rss

End game ©