↑↓torrent.by
Поиск
Логин:  Регистрация
Пароль:

Ангелы смерти (1993) DVDRip от New-Team

download Скачать торрент-файл   magnet Магнитная ссылка Размер: 1.09 GB Добавлен: 2024-06-30 17:00
Пиры будут получены из сети DHT
Последний сидер был замечен 2024-07-06 21:32
Страна: Россия, Франция Производство: Ганемфильм, МФ Свак-Банк, Мосфильм, Vakhdat Жанр: драма, военный Год выпуска: 1993 Продолжительность: 01:32:00 Перевод: не требуется Оригинальная аудиодорожка: русский Cубтитры: нет Режиссер: Юрий Озеров В ролях: Пауэрс Бут, Регимантас Адомайтис, Екатерина Стриженова, Фёдор Бондарчук, Ахим Петри, Фернандо Альенде, Екатерина Урманчеева (Гечмен-Вальдек), Рональд Лэйси, Любомирас Лауцявичюс, Сергей Никоненко, Валерий Цветков, Борис Невзоров, Арчил Гомиашвили, Николай Крючков, Александр Кудинов, Роман Греков, Олег Урюмцев, Борис Левкович, Зигфрид Фосс, Эрнст Хайзе, Эрих Тиде, Юрий Лазарев, Михаил Тихонов, Николай Засухин, Оксана Фомичёва, Юрий Кузьменко, Андрей Гусев, Ольга Лебедева, Лариса Шахворостова, Артем Карапетян (текст от автора)... Подробнее об актерах Описание: Фильм посвящен 50-летию Сталинградской битвы (1942-1943). История любви молодого сибирского парня-снайпера и девушки, волей случая ставшей жертвой знаменитого немецкого стрелка. Считается, что по мотивам этого фильма был снят "Враг у ворот" (США). Исходник: DVD5 R5 Тип релиза: DVDRip Контейнер: AVI Видео: 688x512 (4:3), 25,000 кадров/сек, XviD 73 ~ 1 489 кбит/сек, 0.169 бит/пиксель Аудио: 48 кГц, Dolby Digital AC3 2.0, 192 кбит/сек Раздача от:
[+] MediaInfo Общее Полное имя : Ангелы смерти.1993.DVDRip__by_AVP_Studio.avi Формат : AVI Формат/Информация : Audio Video Interleave Настройки формата : BitmapInfoHeader / WaveFormatEx Размер файла : 1,09 Гбайт Продолжительность : 1 ч. 32 м. Общий поток : 1 691 Кбит/сек Частота кадров : 25,000 кадров/сек Программа кодирования : VirtualDubMod 1.5.10.3 | www.virtualdub-fr.org || (build 2550/release) Библиотека кодирования : VirtualDubMod build 2550/release Видео Идентификатор : 0 Формат : MPEG-4 Visual Профиль формата : Advanced Simple@L5 Настройки формата : BVOP1 / Custom Matrix Параметр BVOP формата : 1 Параметр QPel формата : Нет Параметр GMC формата : Без точки перехода Параметр матрицы формата : Выборочная Идентификатор кодека : XVID Идентификатор кодека/Подсказка : XviD Продолжительность : 1 ч. 32 м. Битрейт : 1 489 Кбит/сек Ширина : 688 пикселей Высота : 512 пикселей Соотношение сторон : 4:3 Частота кадров : 25,000 кадров/сек Цветовое пространство : YUV Субдискретизация насыщенности : 4:2:0 Битовая глубина : 8 бит Тип развёртки : Прогрессивная Метод сжатия : С потерями Бит/(Пиксели*Кадры) : 0.169 Размер потока : 982 Мбайт (88%) Библиотека кодирования : XviD 73 Аудио Идентификатор : 1 Формат : AC-3 Формат/Информация : Audio Coding 3 Коммерческое название : Dolby Digital Идентификатор кодека : 2000 Продолжительность : 1 ч. 32 м. Вид битрейта : Постоянный Битрейт : 192 Кбит/сек Каналы : 2 канала Channel layout : L R Частота : 48,0 КГц Частота кадров : 31,250 кадров/сек (1536 SPF) Метод сжатия : С потерями Размер потока : 127 Мбайт (11%) Выравнивание : Разделение по промежуткам Продолжительность промежутка : 40 мс. (1,00 видеокадр) Время предзагрузки промежутка : 500 мс
[+] Скриншоты

Всего файлов в раздаче: 1 
Ангелы смерти.1993.DVDRip_[New-team]_by_AVP_Studio.avi1.09 GB

Похожие раздачи по запросу - Ангелы
2024-07-17 magnet Обыкновенные ангелы / Ordinary Angels (2024) BDRip 720p от селезень | P, P2 8.11 GB ↑ 0 ↓ 2
2024-07-16 magnet Обыкновенные ангелы / Ordinary Angels (2024) BDRip 1080p | P 13.74 GB ↑ 15 ↓ 0
2024-07-04 magnet Ангелы ада / Hell's Angels (1930) BDRip-AVC | P2 2.17 GB ↑ 0 ↓ 0
2024-05-25 magnet Обыкновенные ангелы / Ordinary Angels (2024) BDRip от New-Team | P2 | ViruseProject 1.46 GB ↑ 0 ↓ 0
2024-05-22 magnet Обыкновенные ангелы / Ordinary Angels (2024) WEB-DLRip-AVC от New-Team | P2 | ViruseProject 2.18 GB ↑ 0 ↓ 1
2024-05-22 magnet Обыкновенные ангелы / Ordinary Angels (2024) WEB-DL 1080p | ViruseProject 8.52 GB ↑ 0 ↓ 0
2024-03-06 magnet Ангелы района / Серии: 1-8 из 8 [2023, комедия, мелодрама, WEBRip-AVC] от Aleksan55 5.04 GB ↑ 0 ↓ 0

Комментарии


Зарегистрируйтесь чтобы добавить комментарий
Торрент клиент
byTorrent - программа для загрузки торрент-файлов.

Скачать byTorrent.exe (1,5 МБ)

Скачать byTorrent.zip (0,6 МБ)

Поддержи torrent.by
российских рублей
(300 российских рублей это 4$)

Обратная связь rss

End game ©