↑↓torrent.by
Поиск
Логин:  Регистрация
Пароль:

Madeleine Peyroux - Let's Walk [24Bit, Hi-Res] (2024) FLAC

download Скачать торрент-файл   magnet Магнитная ссылка Размер: 805.71 MB Добавлен: 2024-06-30 17:00
Пиры будут получены из сети DHT
Последний сидер был замечен 2024-07-10 17:33
Madeleine Peyroux - Let's Walk (2024) Жанр: Vocal jazz Chanson Издание: Just One Recording, Inc. Источник: ссылка Продолжительность: 00:42:09 Кодек: FLAC 24/96 Битрейт: Lossless|WEB-DL Тип рипа: tracks Треклист: 01 - Find True Love 04:01 02 - How I Wish 04:14 03 - Let's Walk 04:52 04 - Please Come On Inside 04:52 05 - Blues for Heaven 04:17 06 - Et Puis 04:02 07 - Me and the Mosquito 03:35 08 - Nothing Personal 04:12 09 - Showman Dan 04:01 10 - Take Care 04:03
[+] Отчёт Dynamic Range Meter: foobar2000 2.0 / Dynamic Range Meter 1.1.1 log date: 2024-06-28 10:15:03 -------------------------------------------------------------------------------- Analyzed: Madeleine Peyroux / Let's Walk -------------------------------------------------------------------------------- DR Peak RMS Duration Track -------------------------------------------------------------------------------- DR13 -0.51 dB -15.36 dB 4:01 01-Find True Love DR13 -0.60 dB -16.45 dB 4:14 02-How I Wish DR11 -0.51 dB -14.04 dB 4:53 03-Let's Walk DR12 -0.51 dB -14.94 dB 4:53 04-Please Come On Inside DR13 -0.53 dB -15.62 dB 4:17 05-Blues for Heaven DR15 -0.52 dB -16.53 dB 4:02 06-Et Puis DR11 -0.50 dB -13.69 dB 3:35 07-Me and the Mosquito DR13 -0.50 dB -16.68 dB 4:13 08-Nothing Personal DR11 -0.50 dB -13.70 dB 4:02 09-Showman Dan DR12 -0.51 dB -14.47 dB 4:04 10-Take Care -------------------------------------------------------------------------------- Number of tracks: 10 Official DR value: DR13 Samplerate: 96000 Hz Channels: 2 Bits per sample: 24 Bitrate: 2636 kbps Codec: FLAC ================================================================================
[+] MI Format : FLAC Format/Info : Free Lossless Audio Codec File size : 77.3 MiB Duration : 4 min 1 s Overall bit rate mode : Variable Overall bit rate : 2 690 kb/s Album : Let's Walk Album/Performer : Madeleine Peyroux Part : 1 Part/Total : 1 Track name : Find True Love Track name/Position : 1 Track name/Total : 10 Performer : Madeleine Peyroux Composer : Madeleine Peyroux & Jon Herington Producer : Just One Recording, Inc. Label : Just One Recording, Inc. Genre : Jazz Recorded date : 2024-06-28 ISRC : QZZCC2300001 Copyright : (C) 2024 Just One Recording, Inc. marketed and distributed by Thirty Tigers (P) 2024 Just One Recording, Inc. marketed and distributed by Thirty Tigers Cover : Yes Cover type : Cover (front) Cover MIME : image/jpeg PRODUCER : ELLIOT SCHEINER, Madeleine Peyroux & Jon Herington INVOLVEDPEOPLE : ELLIOT SCHEINER, Producer - Madeleine Peyroux, Composer, Producer, MainArtist - Jon Herington, Composer, Producer - Good Jon Bad Jon Music (BMI), MusicPublisher - Pennywell Publishing (BMI - admin by Me Gusta Music), MusicPublisher UPC : 0198391129148 MEDIATYPE : album ITUNESADVISORY : 0 URL : https://www.qobuz.com/fr-fr/album/lets-walk-madeleine-peyroux/i25stn34nkhsc Audio Format : FLAC Format/Info : Free Lossless Audio Codec Duration : 4 min 1 s Bit rate mode : Variable Bit rate : 2 687 kb/s Channel(s) : 2 channels Channel layout : L R Sampling rate : 96.0 kHz Bit depth : 24 bits Compression mode : Lossless Stream size : 77.3 MiB (100%) MD5 of the unencoded content : 00000000000000000000000000000000 General Complete name : C:Deemix MusicMadeleine PeyrouxLet's WalkFLAC (24bit-96kHz)600.jpg Format : JPEG File size : 69.8 KiB Image Format : JPEG Width : 600 pixels Height : 600 pixels Color space : YUV Chroma subsampling : 4:4:4 Bit depth : 8 bits Compression mode : Lossy Stream size : 69.8 KiB (100%) ColorSpace_ICC : RGB General Complete name : C:Deemix MusicMadeleine PeyrouxLet's WalkFLAC (24bit-96kHz)Cover.jpg Format : JPEG File size : 2.36 MiB Image Format : JPEG Width : 1 500 pixels Height : 1 500 pixels Color space : YUV Chroma subsampling : 4:4:4 Bit depth : 8 bits Compression mode : Lossy Stream size : 2.36 MiB (100%) ColorSpace_ICC : RGB

Всего файлов в раздаче: 14 
01. Madeleine Peyroux - Find True Love.flac77.43 MB
02. Madeleine Peyroux - How I Wish.flac78.75 MB
03. Madeleine Peyroux - Let's Walk.flac93.74 MB
04. Madeleine Peyroux - Please Come On Inside.flac92.22 MB
05. Madeleine Peyroux - Blues for Heaven.flac81.70 MB
06. Madeleine Peyroux - Et Puis.flac75.65 MB
07. Madeleine Peyroux - Me and the Mosquito.flac70.41 MB
08. Madeleine Peyroux - Nothing Personal.flac77.24 MB
09. Madeleine Peyroux - Showman Dan.flac79.41 MB
10. Madeleine Peyroux - Take Care.flac76.67 MB
Показать все файлы

Похожие раздачи по запросу - Madeleine
2024-07-02 magnet Madeleine Peyroux - Let's Walk (2024) MP3 97.77 MB ↑ 0 ↓ 0

Комментарии


Зарегистрируйтесь чтобы добавить комментарий
Торрент клиент
byTorrent - программа для загрузки торрент-файлов.

Скачать byTorrent.exe (1,5 МБ)

Скачать byTorrent.zip (0,6 МБ)

Поддержи torrent.by
российских рублей
(300 российских рублей это 4$)

Обратная связь rss

End game ©