↑↓torrent.by
Поиск
Логин:  Регистрация
Пароль:

Интуиция / Serendipity (2001) BDRip от New-Team | D

download Скачать торрент-файл   magnet Магнитная ссылка Размер: 1.20 GB Добавлен: 2024-06-30 17:00
Пиры будут получены из сети DHT
Последний сидер был замечен вчера в 20:58
«Насмешница - судьба» Страна: США Производство: Miramax Films, Simon Fields Productions, Tapestry Films Жанр: мелодрама, комедия Год выпуска: 2001 Продолжительность: 01:30:57 Перевод: Профессиональный (полное дублирование) Оригинальная аудиодорожка: нет Cубтитры: нет Режиссер: Питер Челсом / Peter Chelsom В ролях: Джон Кьюсак, Кейт Бекинсейл, Джереми Пивен, Бриджет Мойнэхэн, Юджин Леви, Лилли Лавинь, Майкл Джуарино мл., Абдул Альшавиш, Стефен Брюс, Дэвид Спэрроу... Подробнее об актерах Роли дублировали: Андрей Бархударов, Олег Куценко, Рогволд Суховерко, Сергей Быстрицкий, Сергей Чекан... Описание: В один из суматошных дней зимы 1990 года Джонатан Трейгер встречает Сару Томас. Два незнакомца посреди нью-йоркской толпы, охваченной предновогодней лихорадкой, обнаруживают, что их неодолимо тянет друг к другу. Хотя у каждого из них есть постоянный партнер, Джон и Сара проводят вечер, гуляя по Манхэттену, так и не спросив друг у друга имена. Когда потрясенный Джонатан предлагает обменяться телефонными номерами, Сара возражает против этого и предлагает предоставить дело судьбе: пусть она сама позаботится об их будущем. Она утверждает, что если они созданы друг для друга, их следующая встреча предрешена. Во всяком случае, таков план. Но удача отворачивается от них... Исходник: BDRemux 1080p Тип релиза: BDRip Контейнер: AVI Видео: 720x400 (16:9), 23,976 кадра/сек, XviD 73 ~ 1705 кбит/сек, 0.247 бит/пиксель Аудио: 48 кГц, Dolby Digital AC3 2.0, 192 кбит/сек Раздача от:
[+] MediaInfo Общее Полное имя : Интуиция.2001.BDRip__by_AVP_Studio.avi Формат : AVI Формат/Информация : Audio Video Interleave Настройки формата : BitmapInfoHeader / WaveFormatEx Размер файла : 1,20 Гбайт Продолжительность : 1 ч. 30 мин. Общий битрейт : 1 909 Кбит/сек Частота кадров : 23,976 кадра/сек Видео Идентификатор : 0 Формат : MPEG-4 Visual Профиль формата : Advanced Simple@L5 Настройки формата : BVOP1 / Custom Matrix Параметр BVOP формата : 1 Параметр QPel формата : Нет Параметр GMC формата : Без точки перехода Параметр Matrix формата : Выборочная Идентификатор кодека : XVID Идентификатор кодека/Подсказка : XviD Продолжительность : 1 ч. 30 мин. Битрейт : 1 705 Кбит/сек Ширина : 720 пикселей Высота : 400 пикселей Соотношение сторон дисплея : 16:9 Частота кадров : 23,976 (24000/1001) кадра/сек Цветовое пространство : YUV Цветовая субдискретизация : 4:2:0 Битовая глубина : 8 бит Тип развёртки : Прогрессивная Метод сжатия : С потерями Бит/(Пиксели*Кадры) : 0.247 Размер потока : 1,07 Гбайт (89%) Библиотека кодирования : XviD 73 Аудио Идентификатор : 1 Формат : AC-3 Формат/Информация : Audio Coding 3 Коммерческое название : Dolby Digital Идентификатор кодека : 2000 Продолжительность : 1 ч. 30 мин. Вид битрейта : Постоянный Битрейт : 192 Кбит/сек Канал(-ы) : 2 канала Расположение каналов : L R Частота дискретизации : 48,0 КГц Частота кадров : 31,250 кадров/сек (1536 SPF) Метод сжатия : С потерями Размер потока : 124 Мбайт (10%) Выравнивание : Соединение по промежуткам Чередование, продолжительность : 32 мс. (0,77 видеокадр) Нормализация звука речи : -31 dB dialnorm_Average : -31 dB dialnorm_Minimum : -31 dB dialnorm_Maximum : -31 dB
[+] Скриншоты

Всего файлов в раздаче: 1 
Интуиция.2001.BDRip_[New-team]_by_AVP_Studio.avi1.20 GB

Похожие раздачи по запросу - Интуиция
Вчера magnet Музыкальная интуиция [04х01-05] (2024) WEBRip от Files-x 5.60 GB ↑ 0 ↓ 0
2024-07-15 magnet Музыкальная интуиция [04х01-04] (2024) WEBRip 720p от Files-x 7.93 GB ↑ 0 ↓ 0
2024-07-14 magnet Музыкальная интуиция [04х01-04] (2024) WEBRip от Files-x 4.48 GB ↑ 0 ↓ 0
2024-07-11 magnet Музыкальная интуиция [04х03] [эфир от 06.07] (2024) WEBRip 1080p 8.81 GB ↑ 0 ↓ 0
2024-07-11 magnet Музыкальная интуиция [04х01-03] (2024) WEBRip от Files-x 3.39 GB ↑ 0 ↓ 0
2024-07-10 magnet Музыкальная интуиция [04х01-03] (2024) WEBRip 720p от Files-x 6.00 GB ↑ 0 ↓ 0
2024-06-30 magnet Интуиция / Serendipity (2001) BDRip-AVC от New-Team | D 2.18 GB ↑ 0 ↓ 0

Комментарии


Зарегистрируйтесь чтобы добавить комментарий
Торрент клиент
byTorrent - программа для загрузки торрент-файлов.

Скачать byTorrent.exe (1,5 МБ)

Скачать byTorrent.zip (0,6 МБ)

Поддержи torrent.by
российских рублей
(300 российских рублей это 4$)

Обратная связь rss

End game ©