↑↓torrent.by
Поиск
Логин:  Регистрация
Пароль:

Последний охотник на ведьм / The Last Witch Hunter (2015) UHD BDRemux 2160p от ExKinoRay | 4K | HDR | D, A | Лицензия

download Скачать торрент-файл   magnet Магнитная ссылка Размер: 56.18 GB Раздают: 0 Качают: 2 Добавлен: 2024-07-01 05:00
Пиры будут получены из сети DHT
Последний сидер был замечен сегодня в 03:53
Информация о фильме Название: Последний охотник на ведьм Оригинальное название: The Last Witch Hunter Год выхода: 2015 Жанр: Фэнтези, боевик, приключения Режиссер: Брек Эйснер В ролях: ин Дизель, Роуз Лесли, Элайджа Вуд, Оулавюр Дарри Оулафссон, Рина Оуэн, Юли Энгельбрехт, Майкл Кейн, Джозеф Гилган, Исаак Де Банколе, Майкл Халсли, Слоун Кумбс, Лотте Вербеек, Доун Оливери, Инбар Лави, Армани Джексон, Эйми Карреро, Бекс Тейлор-Клаус, Дэвид Уэйлен, Джэк Эрди, Туссэн Рафаэль Абессоло О фильме: Современный мир скрывает множество секретов, но самым удивительным из них является то, что ведьмы до сих пор живут среди нас. Это злобные сверхъестественные существа, чья цель — наслать на мир смертоносную чуму. Армии охотников на ведьм сражались с ними на протяжении многих веков. В наши дни остался всего лишь один охотник на ведьм, Колдер, которому однажды удалось убить всемогущую королеву ведьм. Но Колдер еще не знает, что королева воскресла и жаждет отомстить своему убийце… Страна: США Студия: Summit Entertainment, Lionsgate Company Продолжительность: 01:46:34 Перевод(ы): #1: Дублированный | Лицензия #2: Авторский | Дольский Файл Качество: BDRemux 2160p Видео: MPEG-H HEVC HDR Video, 3840x2160, 65.0 Mbit/s, 23.976 fps Звук: Аудио #01: 48 kHz, DTS-HD MA, 5.1, 1869 Kbps | Дублированный | RUS | Аудио #02: 48 kHz, AC3, 5.1, 640 Kbps | Дублированный | RUS | Аудио #03: 48 kHz, DTS-HD MA, 7.1, 3948 Kbps | Дублированный | iTunes | RUS | Аудио #04: 48 kHz, DTS-HD MA, 7.1, 4016 Kbps | Оригинал | ENG | Субтитры: Русские (full), английские
[+] MIGeneral Unique ID : 210230113460973804881298397590943402988 (0x9E28D8D9C0ACD224BAE33BD974A78BEC) Complete name : G:VideoSSDThe.Last.Witch.Hunter.2015.BDREMUX.2160p.4K.HEVC.HDR.ExKinoRay.mkv Format : Matroska Format version : Version 4 / Version 2 File size : 56.2 GiB Duration : 1 h 46 min Overall bit rate : 75.5 Mb/s Movie name : The Last Witch Hunter 2015 from ExKinoRay Encoded date : UTC 2017-12-15 01:20:51 Writing application : mkvmerge v18.0.0 ('Apricity') 64-bit Writing library : libebml v1.3.5 + libmatroska v1.4.8 Video ID : 1 Format : HEVC Format/Info : High Efficiency Video Coding Format profile : Main 10@L5.1@High Codec ID : V_MPEGH/ISO/HEVC Duration : 1 h 46 min Bit rate : 65.0 Mb/s Width : 3 840 pixels Height : 2 160 pixels Display aspect ratio : 16:9 Frame rate mode : Constant Frame rate : 23.976 (24000/1001) FPS Color space : YUV Chroma subsampling : 4:2:0 (Type 2) Bit depth : 10 bits Bits/(Pixel*Frame) : 0.327 Stream size : 48.4 GiB (86%) Writing library : ATEME Titan KFE 3.7.3 (4.7.3.1001) Language : English Default : Yes Forced : No Color range : Limited Color primaries : BT.2020 Transfer characteristics : PQ Matrix coefficients : BT.2020 non-constant Mastering display color pri : R: x=0.680000 y=0.320000, G: x=0.265000 y=0.690000, B: x=0.150000 y=0.060000, White point: x=0.312700 y=0.329000 Mastering display luminance : min: 0.0050 cd/m2, max: 4000.0000 cd/m2 Audio #1 ID : 2 Format : DTS Format/Info : Digital Theater Systems Format profile : MA / Core Mode : 16 Format settings, Endianness : Big Codec ID : A_DTS Duration : 1 h 46 min Bit rate mode : Variable / Constant Bit rate : 1 869 kb/s / 1 509 kb/s Channel(s) : 6 channels Channel positions : Front: L C R, Side: L R, LFE Sampling rate : 48.0 kHz Frame rate : 93.750 FPS (512 SPF) Bit depth : 16 bits Compression mode : Lossless / Lossy Stream size : 1.39 GiB (2%) Title : Dub Language : Russian Default : Yes Forced : No Audio #2 ID : 3 Format : AC-3 Format/Info : Audio Coding 3 Format settings, Endianness : Big Codec ID : A_AC3 Duration : 1 h 46 min Bit rate mode : Constant Bit rate : 640 kb/s Channel(s) : 6 channels Channel positions : Front: L C R, Side: L R, LFE Sampling rate : 48.0 kHz Frame rate : 31.250 FPS (1536 SPF) Bit depth : 16 bits Compression mode : Lossy Stream size : 488 MiB (1%) Title : Dub Language : Russian Service kind : Complete Main Default : No Forced : No Audio #3 ID : 4 Format : DTS Format/Info : Digital Theater Systems Format profile : MA / Core Mode : 16 Format settings, Endianness : Big Codec ID : A_DTS Duration : 1 h 46 min Bit rate mode : Variable / Constant Bit rate : 3 948 kb/s / 1 509 kb/s Channel(s) : 8 channels / 6 channels Channel positions : Front: L C R, Side: L R, Back: L R, LFE / Front: L C R, Side: L R, LFE Sampling rate : 48.0 kHz Frame rate : 93.750 FPS (512 SPF) Bit depth : 24 bits Compression mode : Lossless / Lossy Stream size : 2.94 GiB (5%) Title : AVO Language : Russian Default : No Forced : No Audio #4 ID : 5 Format : DTS Format/Info : Digital Theater Systems Format profile : X / MA / Core Mode : 16 Format settings, Endianness : Big Codec ID : A_DTS Duration : 1 h 46 min Bit rate mode : Variable / Variable / Constant Bit rate : 4 016 kb/s / 4 016 kb/s / 1 509 kb/s Channel(s) : Object Based / 8 channels / 6 channels Channel positions : Object Based / Front: L C R, Side: L R, Back: L R, LFE / Front: L C R, Side: L R, LFE Sampling rate : / 48.0 kHz / 48.0 kHz Frame rate : 93.750 FPS (512 SPF) Bit depth : / 24 bits / 24 bits Compression mode : / Lossless / Lossy Stream size : 2.99 GiB (5%) Title : Original Language : English Default : No Forced : No Text #1 ID : 6 Format : UTF-8 Codec ID : S_TEXT/UTF8 Codec ID/Info : UTF-8 Plain Text Duration : 1 h 35 min Bit rate : 67 b/s Count of elements : 1036 Stream size : 47.4 KiB (0%) Title : Full Language : Russian Default : No Forced : No Text #2 ID : 7 Format : UTF-8 Codec ID : S_TEXT/UTF8 Codec ID/Info : UTF-8 Plain Text Duration : 1 h 35 min Bit rate : 39 b/s Count of elements : 893 Stream size : 27.8 KiB (0%) Title : Full Language : English Default : No Forced : No Menu 00:00:00.000 : en:Chapter 01 00:08:02.689 : en:Chapter 02 00:16:26.235 : en:Chapter 03 00:25:18.516 : en:Chapter 04 00:31:01.276 : en:Chapter 05 00:36:48.246 : en:Chapter 06 00:43:08.917 : en:Chapter 07 00:47:09.492 : en:Chapter 08 00:54:09.328 : en:Chapter 09 01:00:32.961 : en:Chapter 10 01:08:02.202 : en:Chapter 11 01:14:44.104 : en:Chapter 12 01:21:04.067 : en:Chapter 13 01:29:15.515 : en:Chapter 14 01:32:57.320 : en:Chapter 15 01:37:28.341 : en:Chapter 16 01:46:34.136 : en:Chapter 17
Релиз от: Автор релиза: Подпишись на меня, кликни по картинке > :

Всего файлов в раздаче: 1 
The.Last.Witch.Hunter.2015.BDREMUX.2160p.4K.HEVC.HDR.ExKinoRay.mkv56.18 GB

Похожие раздачи по запросу - Последний
2024-07-14 magnet Последний герой. Русский сезон [01-03] (2024) WEBRip 720p от от Files-х 7.04 GB ↑ 0 ↓ 0
2024-07-14 magnet Последний герой. Русский сезон [01-03] (2024) WEBRip от от Files-х 3.42 GB ↑ 0 ↓ 0
2024-07-13 magnet Последний секрет Мастера [01-26 из 26] (2010) WEBRip-AVC 17.22 GB ↑ 0 ↓ 0
2024-07-11 magnet Городские легенды 2: Последний отрезок / Urban Legends: Final Cut (2000) WEB-DL 1080p | P, P2, A | Open Matte 6.33 GB ↑ 0 ↓ 0
2024-07-10 magnet Последний герой. Русский сезон [01-02] (2024) WEBRip от от Files-х 2.46 GB ↑ 0 ↓ 0
2024-07-09 magnet Последний герой. Русский сезон [01-02] (2024) WEBRip 720p от от Files-х 5.31 GB ↑ 0 ↓ 0
2024-07-03 magnet Последний герой. Русский сезон [01] (2024) WEBRip 720p от от Files-х 3.18 GB ↑ 0 ↓ 0

Комментарии


Зарегистрируйтесь чтобы добавить комментарий
Торрент клиент
byTorrent - программа для загрузки торрент-файлов.

Скачать byTorrent.exe (1,5 МБ)

Скачать byTorrent.zip (0,6 МБ)

Поддержи torrent.by
российских рублей
(300 российских рублей это 4$)

Обратная связь rss

End game ©