↑↓torrent.by
Поиск
Логин:  Регистрация
Пароль:

Jerry Garcia Band - Garcialive Volume 21: February 13th, 1976 Keystone Berkeley [24-bit Hi-Res] (2024) FLAC

download Скачать торрент-файл   magnet Магнитная ссылка Размер: 2.37 GB Добавлен: 2024-07-01 05:00
Пиры будут получены из сети DHT
Последний сидер был замечен 2024-07-10 02:34
Название: Garcialive Volume 21: February 13th, 1976 Keystone Berkeley Исполнитель: Jerry Garcia Band Год: 2024 Жанр: Pop, Rock Издатель (лейбл): Round Records Продолжительность: 02:09:55 Формат/Кодек: FLAC Тип рипа: Tracks + booklet Битрейт аудио: Lossless Разрядность: 24 Bit/88,2 kHz
[+] Трек-лист CD 01: (01:05:13) 01. Catfish John (Live) (00:14:13) 02. After Midnight (Live) (00:13:37) 03. Mission In The Rain (Live) (00:06:57) 04. Who Was John? (Live) (00:12:28) 05. They Love Each Other (Live) (00:07:31) 06. Moonlight Mile (Live) (00:10:27) CD 02: (01:04:42) 01. The Harder They Come (Live) (00:18:41) 02. Knockin' On Heaven's Door (Live) (00:19:17) 03. Talkin' 'bout You (Live) (00:10:33) 04. How Sweet It Is (To Be Loved By You) (Live At Sophie’s, 2/15/76) (00:09:29) 05. My Sisters And Brothers (Live At Sophie’s, 2/15/76) (00:06:42)
[+] DRM foobar2000 1.5.5 / Замер динамического диапазона (DR) 1.1.1 ------------------------------------------------------------------------------- Анализ: Jerry Garcia Band / Garcialive Volume 21: February 13th, 1976 Keystone Berkeley -------------------------------------------------------------------------------- DR Пики RMS Продолжительность трека -------------------------------------------------------------------------------- DR11 -0.23 дБ -14.62 дБ 14:13 01-Catfish John (Live) DR9 -0.22 дБ -12.68 дБ 13:37 02-After Midnight (Live) DR10 -0.23 дБ -12.77 дБ 6:57 03-Mission In The Rain (Live) DR11 -0.22 дБ -14.73 дБ 12:28 04-Who Was John? (Live) DR12 -0.23 дБ -15.48 дБ 7:31 05-They Love Each Other (Live) DR12 -0.23 дБ -16.44 дБ 10:27 06-Moonlight Mile (Live) -------------------------------------------------------------------------------- Количество треков: 6 Реальные значения DR: DR11 Частота: 88200 Гц Каналов: 2 Разрядность: 24 Битрейт: 2567 кбит/с Кодек: FLAC ================================================================================ -------------------------------------------------------------------------------- Анализ: Jerry Garcia Band / Garcialive Volume 21: February 13th, 1976 Keystone Berkeley -------------------------------------------------------------------------------- DR Пики RMS Продолжительность трека -------------------------------------------------------------------------------- DR12 -0.22 дБ -15.65 дБ 18:41 01-The Harder They Come (Live) DR10 -0.23 дБ -15.33 дБ 19:17 02-Knockin' On Heaven's Door (Live) DR9 -0.23 дБ -12.28 дБ 10:33 03-Talkin' 'bout You (Live) DR10 -0.22 дБ -12.43 дБ 9:29 04-How Sweet It Is (To Be Loved By You) (Live At Sophie’s, 2/15/76) DR12 -0.23 дБ -15.98 дБ 6:42 05-My Sisters And Brothers (Live At Sophie’s, 2/15/76) -------------------------------------------------------------------------------- Количество треков: 5 Реальные значения DR: DR11 Частота: 88200 Гц Каналов: 2 Разрядность: 24 Битрейт: 2588 кбит/с Кодек: FLAC ================================================================================
Время раздачи: 24/7 (минимум до появления первых 3-5 скачавших, на раздачи не возвращаюсь) Первое правило участника файлообмена: "Скачал сам - дай скачать другому!"

Всего файлов в раздаче: 13 
Disc 1\01. Catfish John.flac260.61 MB
Disc 1\02. After Midnight.flac259.45 MB
Disc 1\03. Mission in the Rain.flac131.06 MB
Disc 1\04. Who Was John.flac228.59 MB
Disc 1\05. They Love Each Other.flac139.43 MB
Disc 1\06. Moonlight Mile.flac192.06 MB
Disc 2\01. The Harder They Come.flac348.57 MB
Disc 2\02. Knockin' On Heaven's Door.flac357.55 MB
Disc 2\03. Talkin' 'Bout You.flac201.57 MB
Disc 2\04. How Sweet It Is (To Be Loved By You).flac179.20 MB
Показать все файлы

Комментарии


Зарегистрируйтесь чтобы добавить комментарий
Торрент клиент
byTorrent - программа для загрузки торрент-файлов.

Скачать byTorrent.exe (1,5 МБ)

Скачать byTorrent.zip (0,6 МБ)

Поддержи torrent.by
российских рублей
(300 российских рублей это 4$)

Обратная связь rss

End game ©