↑↓torrent.by
Поиск
Логин:  Регистрация
Пароль:

Отряд самоубийц из другого мира / Suicide Squad Isekai [01x01-03 из 10] (2024) WEB-DL 1080p от Jaskier | P

download Скачать торрент-файл   magnet Магнитная ссылка Размер: 3.95 GB Добавлен: 2024-07-01 05:00
Пиры будут получены из сети DHT
Последний сидер был замечен 2024-07-02 21:37
Информация о фильме Название: Отряд самоубийц из другого мира Оригинальное название: Suicide Squad Isekai Год выхода: 2024 Жанр: аниме, мультфильм, фэнтези, приключения, боевик, комедия Режиссер: Эри Осада В ролях: Дзюн Фукуяма, Рэиго Ямагути, Анна Нагасэ, Юитиро Умэхара, Субару Кимура, Такэхито Коясу, Рэина Уэда, Дзюн Фукусима, Мамико Ното, Тика Андзаи О фильме: В охваченном преступностью Готэме глава A.R.G.U.S. Аманда Уоллер собирает группу самых опасных преступников, чтобы отправить их в альтернативный мир мечей и магии для выполнения важной миссии. Туда, где свирепствуют орки, а в небесах правят драконы. Страна: Япония Студия: Wit Studio, Warner Bros., DC Entertainment, Warner Bros. Animation Продолжительность: ~00:24:00 Перевод: Профессиональный (многоголосый закадровый) Jaskier Файл Кодек: MKV Качество: WEB-DL 1080p Видео: AVC, 1920x1080 (16:9), 23.976 fps, ~7488 kbps Звук: Аудио 1: Русский, AC-3, 48 kHz, 2 ch, 192 kbps | Jaskier Аудио 2: Японский, E-AC-3, 48 kHz, 2 ch, 224 kbps Субтитры: Английские Семпл
[+] MediaInfo General Unique ID : 243023573403578309521471379743345980688 (0xB6D4A341AEDD973E8D5180A46817B510) Complete name : E:TorrentSuicide.Squad.Isekai.S01.1080p.AMZN.WEB-DL.DDP2.0.H.264-JaskierSuicide.Squad.Isekai.S01E01.1080p.AMZN.WEB-DL.DDP2.0.H.264-Jaskier.mkv Format : Matroska Format version : Version 4 File size : 1.36 GiB Duration : 24 min 4 s Overall bit rate : 8 064 kb/s Frame rate : 23.976 FPS Encoded date : 2024-06-30 09:04:26 UTC Writing application : mkvmerge v6.6.0 ('The Edge Of The In Between') built on Dec 1 2013 17:55:00 Writing library : libebml v1.3.0 + libmatroska v1.4.1 Video ID : 1 Format : AVC Format/Info : Advanced Video Codec Format profile : High@L4 Format settings : CABAC / 4 Ref Frames Format settings, CABAC : Yes Format settings, Reference frames : 4 frames Codec ID : V_MPEG4/ISO/AVC Duration : 24 min 4 s Bit rate mode : Constant Bit rate : 7 488 kb/s Nominal bit rate : 10 000 kb/s Width : 1 920 pixels Height : 1 080 pixels Display aspect ratio : 16:9 Frame rate mode : Constant Frame rate : 23.976 (24000/1001) FPS Color space : YUV Chroma subsampling : 4:2:0 Bit depth : 8 bits Scan type : Progressive Bits/(Pixel*Frame) : 0.151 Stream size : 1.26 GiB (93%) Default : Yes Forced : No Color range : Limited Color primaries : BT.709 Transfer characteristics : BT.709 Matrix coefficients : BT.709 Audio #1 ID : 2 Format : AC-3 Format/Info : Audio Coding 3 Commercial name : Dolby Digital Codec ID : A_AC3 Duration : 24 min 4 s Bit rate mode : Constant Bit rate : 192 kb/s Channel(s) : 2 channels Channel layout : L R Sampling rate : 48.0 kHz Frame rate : 31.250 FPS (1536 SPF) Compression mode : Lossy Stream size : 33.1 MiB (2%) Title : Jaskier Language : Russian Service kind : Complete Main Default : Yes Forced : No Dialog Normalization : -31 dB dialnorm_Average : -31 dB dialnorm_Minimum : -31 dB dialnorm_Maximum : -31 dB Audio #2 ID : 3 Format : E-AC-3 Format/Info : Enhanced AC-3 Commercial name : Dolby Digital Plus Codec ID : A_EAC3 Duration : 24 min 4 s Bit rate mode : Constant Bit rate : 224 kb/s Channel(s) : 2 channels Channel layout : L R Sampling rate : 48.0 kHz Frame rate : 31.250 FPS (1536 SPF) Compression mode : Lossy Stream size : 38.6 MiB (3%) Title : Original Language : Japanese Service kind : Complete Main Default : No Forced : No Dialog Normalization : -31 dB compr : -0.28 dB dsurmod : Not Dolby Surround encoded dialnorm_Average : -31 dB dialnorm_Minimum : -31 dB dialnorm_Maximum : -31 dB Text ID : 4 Format : UTF-8 Codec ID : S_TEXT/UTF8 Codec ID/Info : UTF-8 Plain Text Language : English Default : No Forced : No
[+] Скриншоты
Релиз от: Jaskier

Всего файлов в раздаче: 3 
Suicide.Squad.Isekai.S01E01.1080p.AMZN.WEB-DL.DDP2.0.H.264-Jaskier.mkv1.36 GB
Suicide.Squad.Isekai.S01E02.1080p.AMZN.WEB-DL.DDP2.0.H.264-Jaskier.mkv1.26 GB
Suicide.Squad.Isekai.S01E03.1080p.AMZN.WEB-DL.DDP2.0.H.264-Jaskier.mkv1.33 GB

Похожие раздачи по запросу - Отряд
2024-07-16 magnet Отряд самоубийц из другого мира / Isekai Suicide Squad [01x01-05 из 10] (2024) WEBRip 1080p by VLDeshka | D, L | StudioBand, Дубляжная, DreamCast 3.17 GB ↑ 0 ↓ 0
2024-07-14 magnet Отряд самоубийц из другого мира / Suicide Squad Isekai [01x01-05 из 10] (2024) WEB-DL 1080p от Jaskier | P 6.10 GB ↑ 0 ↓ 0
2024-07-07 magnet Отряд самоубийц из другого мира / Suicide Squad Isekai [01x01-04 из 10] (2024) WEB-DL 1080p от Jaskier | P 5.09 GB ↑ 0 ↓ 0
2024-07-06 magnet Отряд самоубийц из другого мира / Isekai Suicide Squad [01x01-04 из 10] (2024) WEBRip 1080p by VLDeshka | D, L | Дубляжная, DreamCast 2.20 GB ↑ 0 ↓ 0
2024-06-29 magnet Отряд самоубийц из другого мира / Isekai Suicide Squad [01x01-03 из 10] (2024) WEBRip 1080p by VLDeshka | L | DreamCast 1К1.62 GB ↑ 0 ↓ 0
2023-07-09 magnet Мегавременной отряд / Mega Time Squad (2018) BDRip 720p от ExKinoRay | D 2.68 GB ↑ 0 ↓ 0
2021-10-17 magnet Отряд самоубийц: Миссия навылет / The Suicide Squad (2021) BDRip от Twister & ExKinoRay | D 1.46 GB ↑ 0 ↓ 0

Комментарии


Зарегистрируйтесь чтобы добавить комментарий
Торрент клиент
byTorrent - программа для загрузки торрент-файлов.

Скачать byTorrent.exe (1,5 МБ)

Скачать byTorrent.zip (0,6 МБ)

Поддержи torrent.by
российских рублей
(300 российских рублей это 4$)

Обратная связь rss

End game ©