↑↓torrent.by
Поиск
Логин:  Регистрация
Пароль:

Кунг-фу Панда 4 / Kung Fu Panda 4 (2024) BDRip от DoMiNo & селезень | D, P | Red Head Sound, Jaskier

download Скачать торрент-файл   magnet Магнитная ссылка Размер: 1.47 GB Раздают: 0 Качают: 1 Добавлен: 2024-07-01 05:00
Пиры будут получены из сети DHT
Последний сидер был замечен 2024-07-17 22:17
Информация о фильме Название: Кунг-фу Панда 4 Оригинальное название: Kung Fu Panda 4 Год выхода: 2024 Жанр: Mультфильм, фэнтези, боевик, комедия, приключения, семейный Режиссер: Майк Митчелл, Стефани Стайн В ролях: Джек Блэк, Аквафина, Виола Дэвис, Дастин Хоффман, Брайан Крэнстон, Джеймс Хун, Иэн Макшейн, Ке Хюи Куан, Ронни Чиэн, Лори Тань Чинн О фильме: Продолжение приключений легендарного Воина Дракона, его верных друзей и наставника. Страна: США, Китай Студия: DreamWorks Animation, DreamWorks SKG, Universal Pictures Продолжительность: 01:33:39 Перевод 1: Дублированный (неофициальный) | Red Head Sound (Панду По озвучивает Михаил Галустян) Перевод 2: Профессиональный (многоголосый, закадровый) | Jaskier Файл Формат: AVI Качество: BDRip Исходник: Kung Fu Panda 4 (2024) BDRemux 1080p Видео: 720x304 at 23.976 fps, XviD 69, ~1395 kbps Аудио 1: AC3, 6 ch, ~448 kbps - | Русский | | Red Head Sound Аудио 2: AC3, 6 ch, ~384 kbps - | Английский | | Jaskier Субтитры: Нет ***Рип от: -=DoMiNo=-
[+] M/IGeneral Complete name : T:Kung.Fu.Panda.4.2024.BDRip.seleZen.avi Format : AVI Format/Info : Audio Video Interleave Format settings : WaveFormatEx File size : 1.47 GiB Duration : 1 h 33 min Overall bit rate : 2 241 kb/s Frame rate : 23.976 FPS Movie name : Kung.Fu.Panda.4.2024.BDRip.seleZen Writing application : VirtualDubModRus 1.5.10.2 (build 2542/release) Writing library : VirtualDubMod build 2542/release Copyright : -=DoMiNo=- Video ID : 0 Format : MPEG-4 Visual Format profile : Advanced Simple@L5 Format settings : BVOP1 / Custom Matrix Format settings, BVOP : 1 Format settings, QPel : No Format settings, GMC : No warppoints Format settings, Matrix : Custom Codec ID : XVID Codec ID/Hint : XviD Duration : 1 h 33 min Bit rate : 1 395 kb/s Width : 720 pixels Height : 304 pixels Display aspect ratio : 2.39:1 Frame rate : 23.976 (24000/1001) FPS Color space : YUV Chroma subsampling : 4:2:0 Bit depth : 8 bits Scan type : Progressive Compression mode : Lossy Bits/(Pixel*Frame) : 0.266 Stream size : 934 MiB (62%) Writing library : XviD 69 Audio #1 ID : 1 Format : AC-3 Format/Info : Audio Coding 3 Commercial name : Dolby Digital Codec ID : 2000 Duration : 1 h 33 min Bit rate mode : Constant Bit rate : 448 kb/s Channel(s) : 6 channels Channel layout : L R C LFE Ls Rs Sampling rate : 48.0 kHz Frame rate : 31.250 FPS (1536 SPF) Compression mode : Lossy Stream size : 300 MiB (20%) Alignment : Split across interleaves Interleave, duration : 42 ms (1.00 video frame) Interleave, preload duratio : 500 ms Service kind : Complete Main Dialog Normalization : -31 dB compr : -0.28 dB cmixlev : -3.0 dB surmixlev : -3 dB mixlevel : 284 dB roomtyp : 3 ltrtcmixlev : -3.0 dB ltrtsurmixlev : -3.0 dB lorocmixlev : -3.0 dB lorosurmixlev : -3.0 dB dialnorm_Average : -31 dB dialnorm_Minimum : -31 dB dialnorm_Maximum : -31 dB Audio #2 ID : 2 Format : AC-3 Format/Info : Audio Coding 3 Commercial name : Dolby Digital Codec ID : 2000 Duration : 1 h 33 min Bit rate mode : Constant Bit rate : 384 kb/s Channel(s) : 6 channels Channel layout : L R C LFE Ls Rs Sampling rate : 48.0 kHz Frame rate : 31.250 FPS (1536 SPF) Compression mode : Lossy Stream size : 257 MiB (17%) Alignment : Split across interleaves Interleave, duration : 42 ms (1.00 video frame) Interleave, preload duratio : 500 ms Service kind : Complete Main Dialog Normalization : -31 dB cmixlev : -4.5 dB surmixlev : -6 dB dialnorm_Average : -31 dB dialnorm_Minimum : -31 dB dialnorm_Maximum : -31 dB
Релиз: Присоединяйся к: Кликай на баннеры.

Всего файлов в раздаче: 1 
Kung.Fu.Panda.4.2024.BDRip.seleZen.avi1.47 GB

Похожие раздачи по запросу - Кунг-фу
2024-07-11 magnet Кунг-фу Панда 4 / Kung Fu Panda 4 (2024) BDRemux 1080p | D, P 27.35 GB ↑ 0 ↓ 0
2024-07-07 magnet Кунг-фу по-итальянски / Grosso guaio all'Esquilino - La leggenda del kung fu (2023) WEB-DLRip | D 1.46 GB ↑ 0 ↓ 0
2024-07-07 magnet Кунг-фу по-итальянски / Grosso guaio all'Esquilino - La leggenda del kung fu (2023) WEB-DL 1080p | D 2.83 GB ↑ 0 ↓ 1
2024-07-04 magnet Кунг-фу Панда 4 / Kung Fu Panda 4 (2024) UHD BDRemux 2160p | 4K | HDR | Dolby Vision Profile 7 | D | UKR 43.53 GB ↑ 0 ↓ 1
2024-07-01 magnet Кунг-фу Панда 4 / Kung Fu Panda 4 (2024) BDRip 1080p | D | UKR 11.26 GB ↑ 0 ↓ 0
2024-06-16 magnet Кунг-фу Панда 4 / Kung Fu Panda 4 (2024) BDRip 1080p от Generalfilm | D 4.94 GB ↑ 0 ↓ 0
2024-05-29 magnet Кунг-фу Панда 4 / Kung Fu Panda 4 (2024) BDRip 1080p от DoMiNo & селезень | D | Red Head Sound 7.24 GB ↑ 1 ↓ 2

Комментарии


Зарегистрируйтесь чтобы добавить комментарий
Торрент клиент
byTorrent - программа для загрузки торрент-файлов.

Скачать byTorrent.exe (1,5 МБ)

Скачать byTorrent.zip (0,6 МБ)

Поддержи torrent.by
российских рублей
(300 российских рублей это 4$)

Обратная связь rss

End game ©