↑↓torrent.by
Поиск
Логин:  Регистрация
Пароль:

Горный хрусталь / Rhinestone (1984) BDRemux 1080p | P, A

download Скачать торрент-файл   magnet Магнитная ссылка Размер: 18.99 GB Добавлен: 2024-07-01 05:00
Пиры будут получены из сети DHT
Последний сидер был замечен 2024-07-01 05:00
Страна: США Студия: 20th Century Fox Film Corporation Жанр: комедия, музыка Год выпуска: 1984 Продолжительность: 01:51:15 Перевод 1: Профессиональный (многоголосый закадровый) 1 канал Перевод 2: Авторский (одноголосый закадровый) Андрей Гаврилов Субтитры: английские Оригинальная аудиодорожка: английский Режиссер: Боб Кларк / Bob Clark В ролях: Сильвестр Сталлоне, Долли Партон, Ричард Фарнсуорт, Рон Лайбмен, Тим Томерсон, Стив Пек, Пенни Сантон, Расселл Бьюкэнэн, Рич Бринкли, Джерри Поттер, Джесси Уэллс, Фил Рубенштейн, Томас Икеда, Кристал Ким, Арлин Миядзаки Описание: Певица из ночного клуба заключает пари с владельцем заведения. Она говорит, что сделать из водителя такси звезду — проще простого. «Горный хрусталь» — это еще одна современная вариация «Пигмалиона» Бернарда Шоу, своего рода пародия на классический сюжет, только в качестве Галатеи выступает не «прекрасная леди», а шофер. Тип релиза: BDRemux 1080p Контейнер: MKV Видео: MPEG-4 AVC, 23 Мбит/с, 1920x1080, 24 кадр/с Аудио 1: Russian: 48 kHz, AC3 Dolby Digital, 2/0 (L,R) ch, ~192 kbps |Профессиональный многоголосый, 1 канал| Аудио 2: Russian: 48 kHz, AC3 Dolby Digital, 2/0 (L,R) ch, ~224 kbps |Одноголосый закадровый, Андрей Гаврилов| Аудио 3: English: 48 kHz/16 bits, DTS, 3/2 (L,C,R,l,r) + LFE ch, ~1026 kbps avg
[+] MediaInfo General Unique ID : 236220053954391233500035144990694303457 (0xB1B653D98046967ABDDFDEEA13E7E6E1) Complete name : C:ИгрыRhinestone.1984.BDRemux.1080p.mkv Format : Matroska Format version : Version 2 File size : 19.0 GiB Duration : 1 h 51 min Overall bit rate mode : Variable Overall bit rate : 24.4 Mb/s Frame rate : 24.000 FPS Encoded date : 2024-06-29 13:19:06 UTC Writing application : mkvmerge v7.8.0 ('River Man') 32bit built on Apr 3 2015 12:11:22 Writing library : libebml v1.3.1 + libmatroska v1.4.2 Cover : Yes Attachments : cover.jpg Video ID : 1 Format : AVC Format/Info : Advanced Video Codec Format profile : High@L4.1 Format settings : CABAC / 3 Ref Frames Format settings, CABAC : Yes Format settings, Reference fra : 3 frames Codec ID : V_MPEG4/ISO/AVC Duration : 1 h 51 min Bit rate mode : Variable Bit rate : 23.0 Mb/s Maximum bit rate : 40.0 Mb/s Width : 1 920 pixels Height : 1 080 pixels Display aspect ratio : 16:9 Frame rate mode : Constant Frame rate : 24.000 FPS Color space : YUV Chroma subsampling : 4:2:0 Bit depth : 8 bits Scan type : Progressive Bits/(Pixel*Frame) : 0.462 Stream size : 17.5 GiB (92%) Writing library : x264 core 125 r2208 d9d2288 Encoding settings : cabac=1 / ref=4 / deblock=1:-1:-1 / analyse=0x3:0x133 / me=umh / subme=10 / psy=1 / psy_rd=1.00:0.15 / mixed_ref=1 / me_range=24 / chroma_me=1 / trellis=2 / 8x8dct=1 / cqm=0 / deadzone=21,11 / fast_pskip=1 / chroma_qp_offset=-3 / threads=24 / lookahead_threads=4 / sliced_threads=0 / slices=4 / nr=0 / decimate=1 / interlaced=0 / bluray_compat=1 / constrained_intra=0 / bframes=3 / b_pyramid=1 / b_adapt=2 / b_bias=0 / direct=3 / weightb=1 / open_gop=1 / weightp=1 / keyint=24 / keyint_min=1 / scenecut=5 / intra_refresh=0 / rc_lookahead=24 / rc=2pass / mbtree=1 / bitrate=23000 / ratetol=1.0 / qcomp=0.60 / qpmin=0 / qpmax=69 / qpstep=4 / cplxblur=20.0 / qblur=0.5 / vbv_maxrate=40000 / vbv_bufsize=30000 / nal_hrd=vbr / ip_ratio=1.40 / aq=1:1.00 Language : English Default : Yes Forced : No Color range : Limited Color primaries : BT.709 Transfer characteristics : BT.709 Matrix coefficients : BT.709 Audio #1 ID : 2 Format : AC-3 Format/Info : Audio Coding 3 Commercial name : Dolby Digital Codec ID : A_AC3 Duration : 1 h 51 min Bit rate mode : Constant Bit rate : 192 kb/s Channel(s) : 2 channels Channel layout : L R Sampling rate : 48.0 kHz Frame rate : 31.250 FPS (1536 SPF) Compression mode : Lossy Stream size : 153 MiB (1%) Title : MVO (1 канал) Language : Russian Service kind : Complete Main Default : Yes Forced : No Audio #2 ID : 3 Format : AC-3 Format/Info : Audio Coding 3 Commercial name : Dolby Digital Codec ID : A_AC3 Duration : 1 h 51 min Bit rate mode : Constant Bit rate : 224 kb/s Channel(s) : 2 channels Channel layout : L R Sampling rate : 48.0 kHz Frame rate : 31.250 FPS (1536 SPF) Compression mode : Lossy Stream size : 178 MiB (1%) Title : AVO (Андрей Гаврилов) Language : Russian Service kind : Complete Main Default : No Forced : No Audio #3 ID : 4 Format : DTS Format/Info : Digital Theater Systems Codec ID : A_DTS Duration : 1 h 51 min Bit rate mode : Constant Bit rate : 1 026 kb/s Channel(s) : 6 channels Channel layout : C L R Ls Rs LFE Sampling rate : 48.0 kHz Frame rate : 93.750 FPS (512 SPF) Bit depth : 16 bits Compression mode : Lossy Stream size : 817 MiB (4%) Language : English Default : No Forced : No Text ID : 5 Format : UTF-8 Codec ID : S_TEXT/UTF8 Codec ID/Info : UTF-8 Plain Text Language : English Default : No Forced : No Menu 00:00:00.000 : en:Chapter 1 00:13:15.916 : en:Chapter 2 00:17:15.416 : en:Chapter 3 00:25:30.833 : en:Chapter 4 00:36:09.791 : en:Chapter 5 00:44:35.000 : en:Chapter 6 00:53:05.416 : en:Chapter 7 01:08:23.125 : en:Chapter 8 01:22:30.000 : en:Chapter 9 01:31:33.125 : en:Chapter 10 01:39:00.125 : en:Chapter 11 01:48:47.083 : en:Chapter 12
[+] Скриншоты

Всего файлов в раздаче: 1 
Rhinestone.1984.BDRemux.1080p.mkv18.99 GB

Комментарии


Зарегистрируйтесь чтобы добавить комментарий
Торрент клиент
byTorrent - программа для загрузки торрент-файлов.

Скачать byTorrent.exe (1,5 МБ)

Скачать byTorrent.zip (0,6 МБ)

Поддержи torrent.by
российских рублей
(300 российских рублей это 4$)

Обратная связь rss

End game ©