↑↓torrent.by
Поиск
Логин:  Регистрация
Пароль:

Все мы, итальянцы, - братья / Fratelli d'Italia (1989) DVDRip-AVC от ExKinoRay | L1

download Скачать торрент-файл   magnet Магнитная ссылка Размер: 2.38 GB Добавлен: 2024-07-01 05:00
Пиры будут получены из сети DHT
Последний сидер был замечен 2024-07-06 16:30
Информация о фильме Название: Все мы, итальянцы, - братья Оригинальное название: Fratelli d'Italia Год выхода: 1989 Жанр: Комедия Режиссер: Нери Паренти В ролях: Кристиан Де Сика, Джерри Кала, Массимо Болди, Сабрина Салерно, Анджело Бернабуччи, Маурицио Маттиоли, Глория Пол, Ида Галли, Лаура Нуччи, Массимо Серато, Маурицио Фаббри, Джанни Франко, Антонио Карли, Фабрицио Бракконери, Наталие Кальдонаццо, Коррадо Монтефорте, Эмануэле Маньони, Ливио Лоцци, Себастьян Харрисон, Марио Фарезе О фильме: Фильм состоит из трех комедийных новелл. В первой речь идет об обычном римском парне, решившем выдать себя за богатого плейбоя. Во второй новелле рассказывается о молодом человеке, поспорившем с друзьями, что переспит с красавицей-женой своего босса. В третьей незадачливый бухгалтер, футбольный фанат миланского «Интера», волей судьбы попадает в стан фанатов команды противника — римской «Ромы». Страна: Италия Студия: Gruppo Bema Продолжительность: 01:32:48 Перевод : Любительский одноголосый Файл Формат: MKV Качество: DVDRip-AVC Видео: MPEG-4 AVC, 952x570, 3100 Кбит/с Аудио #1: RUS, АС3, 2 ch, 192 Кбит/с | Любительский, Николай Золотухин | Аудио #2: RUS, АС3, 2 ch, 192 Кбит/с | Любительский, SATKUR | Аудио #3: ITA, АС3, 2 ch, 192 Кбит/с | Оригинал | Субтитры: Русские (Антон Каптелов)
[+] MIОбщее Уникальный идентификатор : 122528581873179739145442052689724740646 (0x5C2E258030D69EA7FF6EBB45B9909426) Полное имя : D:MOVIESFratelli.d'Italia.1989.DVDRip-AVC.ExKinoRay.mkv Формат : Matroska Версия формата : Version 4 Размер файла : 2,38 Гбайт Продолжительность : 1 ч. 32 мин. Общий битрейт : 3 678 Кбит/сек Частота кадров : 25,000 кадров/сек Дата кодирования : 2024-06-30 16:24:16 UTC Программа кодирования : mkvmerge v45.0.0 ('Heaven in Pennies') 64-bit Библиотека кодирования : libebml v1.3.10 + libmatroska v1.5.2 Обложка : Yes Attachments : cover.jpg Видео Идентификатор : 1 Формат : AVC Формат/Информация : Advanced Video Codec Профиль формата : High@L4.1 Настройки формата : CABAC / 11 Ref Frames Параметр CABAC формата : Да Параметр RefFrames формата : 11 кадров Идентификатор кодека : V_MPEG4/ISO/AVC Продолжительность : 1 ч. 32 мин. Битрейт : 3 100 Кбит/сек Ширина : 952 пикселя Высота : 570 пикселей Соотношение сторон дисплея : 5:3 Режим частоты кадров : Постоянный Частота кадров : 25,000 кадров/сек Цветовое пространство : YUV Цветовая субдискретизация : 4:2:0 Битовая глубина : 8 бит Тип развёртки : Прогрессивная Бит/(Пиксели*Кадры) : 0.229 Размер потока : 2,01 Гбайт (84%) Библиотека кодирования : x264 core 164 r3190 7ed753b Параметры библиотеки кодирования : cabac=1 / ref=11 / deblock=1:-2:-2 / analyse=0x3:0x133 / me=umh / subme=10 / psy=1 / psy_rd=1.05:0.10 / mixed_ref=1 / me_range=32 / chroma_me=1 / trellis=2 / 8x8dct=1 / cqm=0 / deadzone=21,11 / fast_pskip=0 / chroma_qp_offset=-3 / threads=6 / lookahead_threads=1 / sliced_threads=0 / nr=0 / decimate=0 / interlaced=0 / bluray_compat=0 / constrained_intra=0 / bframes=9 / b_pyramid=2 / b_adapt=2 / b_bias=0 / direct=3 / weightb=1 / open_gop=0 / weightp=2 / keyint=250 / keyint_min=25 / scenecut=40 / intra_refresh=0 / rc=2pass / mbtree=0 / bitrate=3100 / ratetol=1.0 / qcomp=0.60 / qpmin=0 / qpmax=69 / qpstep=4 / cplxblur=20.0 / qblur=0.5 / ip_ratio=1.40 / pb_ratio=1.30 / aq=1:1.00 Язык : Итальянский По умолчанию : Да Принудительно : Нет Аудио #1 Идентификатор : 2 Формат : AC-3 Формат/Информация : Audio Coding 3 Коммерческое название : Dolby Digital Идентификатор кодека : A_AC3 Продолжительность : 1 ч. 32 мин. Вид битрейта : Постоянный Битрейт : 192 Кбит/сек Канал(-ы) : 2 канала Расположение каналов : L R Частота дискретизации : 48,0 КГц Частота кадров : 31,250 кадров/сек (1536 SPF) Метод сжатия : С потерями Размер потока : 127 Мбайт (5%) Заголовок : Николай Золотухин Язык : Русский Вид сервиса : Complete Main По умолчанию : Нет Принудительно : Нет Нормализация звука речи : -27 dB compr : -0.28 dB dynrng : -4.30 dB dsurmod : Not Dolby Surround encoded mixlevel : 285 dB roomtyp : Small dialnorm_Average : -27 dB dialnorm_Minimum : -27 dB dialnorm_Maximum : -27 dB Аудио #2 Идентификатор : 3 Формат : AC-3 Формат/Информация : Audio Coding 3 Коммерческое название : Dolby Digital Идентификатор кодека : A_AC3 Продолжительность : 1 ч. 32 мин. Вид битрейта : Постоянный Битрейт : 192 Кбит/сек Канал(-ы) : 2 канала Расположение каналов : L R Частота дискретизации : 48,0 КГц Частота кадров : 31,250 кадров/сек (1536 SPF) Метод сжатия : С потерями Размер потока : 127 Мбайт (5%) Заголовок : SATKUR Язык : Русский Вид сервиса : Complete Main По умолчанию : Да Принудительно : Нет Нормализация звука речи : -27 dB compr : -0.28 dB dynrng : -4.30 dB dsurmod : Not Dolby Surround encoded mixlevel : 285 dB roomtyp : Small dialnorm_Average : -27 dB dialnorm_Minimum : -27 dB dialnorm_Maximum : -27 dB Аудио #3 Идентификатор : 4 Формат : AC-3 Формат/Информация : Audio Coding 3 Коммерческое название : Dolby Digital Идентификатор кодека : A_AC3 Продолжительность : 1 ч. 32 мин. Вид битрейта : Постоянный Битрейт : 192 Кбит/сек Канал(-ы) : 2 канала Расположение каналов : L R Частота дискретизации : 48,0 КГц Частота кадров : 31,250 кадров/сек (1536 SPF) Метод сжатия : С потерями Размер потока : 127 Мбайт (5%) Язык : Итальянский Вид сервиса : Complete Main По умолчанию : Нет Принудительно : Нет Нормализация звука речи : -27 dB compr : -0.28 dB dynrng : -8.70 dB mixlevel : 285 dB roomtyp : Small dialnorm_Average : -27 dB dialnorm_Minimum : -27 dB dialnorm_Maximum : -27 dB Текст Идентификатор : 5 Формат : UTF-8 Идентификатор кодека : S_TEXT/UTF8 Идентификатор кодека/Информация : UTF-8 Plain Text Продолжительность : 1 ч. 30 мин. Битрейт : 152 бит/сек Частота кадров : 0,308 кадр/сек Число элементов : 1680 Размер потока : 102 КиБ (0%) Язык : Русский По умолчанию : Да Принудительно : Нет Меню 00:00:00.000 : en:Chapter 01 00:05:25.920 : en:Chapter 02 00:11:57.120 : en:Chapter 03 00:14:32.160 : en:Chapter 04 00:20:46.080 : en:Chapter 05 00:25:58.080 : en:Chapter 06 00:28:35.040 : en:Chapter 07 00:32:43.200 : en:Chapter 08 00:37:38.880 : en:Chapter 09 00:43:24.960 : en:Chapter 10 00:49:15.840 : en:Chapter 11 00:55:24.000 : en:Chapter 12 01:02:40.800 : en:Chapter 13 01:06:59.040 : en:Chapter 14 01:11:25.920 : en:Chapter 15 01:18:09.120 : en:Chapter 16 01:21:51.840 : en:Chapter 17 01:26:32.160 : en:Chapter 18
[+] Скриншоты

Всего файлов в раздаче: 1 
Fratelli.d'Italia.1989.DVDRip-AVC.ExKinoRay.mkv2.38 GB

Похожие раздачи по запросу - Все
Вчера magnet Светлана Разина - Всё самое лучшее (2024) FLAC 864.77 MB ↑ 0 ↓ 0
Вчера magnet Светлана Разина - Всё самое лучшее (2024) MP3 263.20 MB ↑ 0 ↓ 0
Вчера magnet Леонид Сабанеев - Все о рыбалке. Легендарная подарочная энциклопедия (2023) FB2 21.70 MB ↑ 0 ↓ 0
2024-07-15 magnet Футбол. Чемпионат Европы 2024. Финальный турнир. Все голы (2024) HDTV 1080i 16.36 GB ↑ 0 ↓ 0
2024-07-15 magnet Футбол. Чемпионат Европы 2024. Финальный турнир. Финал. Все на Матч! [14.07] (2024) WEBRip 720р | 50 fps 2.44 GB ↑ 0 ↓ 0
2024-07-13 magnet Девочки в порядке / У девочек все хорошо / Las chicas están bien / The Girls Are Alright (2023) HDRip-AVC | L 1.46 GB ↑ 1 ↓ 0
2024-07-08 magnet Футбол. Чемпионат Европы 2024. Финальный турнир. Все на Матч! [06.07] (2024) WEBRip 1.84 GB ↑ 0 ↓ 0

Комментарии


Зарегистрируйтесь чтобы добавить комментарий
Торрент клиент
byTorrent - программа для загрузки торрент-файлов.

Скачать byTorrent.exe (1,5 МБ)

Скачать byTorrent.zip (0,6 МБ)

Поддержи torrent.by
российских рублей
(300 российских рублей это 4$)

Обратная связь rss

End game ©