↑↓torrent.by
Поиск
Логин:  Регистрация
Пароль:

Игра джентльменов / Долгая игра / The Long Game (2023) WEB-DL 720p от селезень | P | TVShows

download Скачать торрент-файл   magnet Магнитная ссылка Размер: 3.78 GB Добавлен: 2024-07-01 05:00
Пиры будут получены из сети DHT
Последний сидер был замечен 2024-07-12 13:21
Информация о фильме Название: Игра джентльменов / Долгая игра Оригинальное название: The Long Game Год выпуска: 2023 Жанр: Драма, спорт Режиссер: Хулио Квинтана / Julio Quintana В ролях: Джей Эрнандес, Дэннис Куэйд, Чич Марин, Джулиан Уоркс, Джейна Ли Ортис, Грегори Диас, Паулина Чавес, Джиллиан Вигмэн, Майкл Саутворт, Армандо Ривера О фильме: Команда гольфистов-любителей открывает по соседству с элитным загородным клубом свой. Здесь нет маршалов, подстриженной по линейке травы и дорогой экипировки. Все своими руками. Но тот, кто преодолеет бункеры из грязи, преграды из кактусов и бокс в раздевалке, будет готов ко всему. Под насмешки всего города команда готовится к своему первому большому турниру. Выпущено: США / Fifth Season, Bonniedale, Jaguar Bite, Mucho Mas Media, TBD Post Продолжительность: 01:52:46 Перевод: Профессиональный (многоголосый, закадровый) | TVShows Субтитры: Английские (Full, SDH) Файл Формат: Matroska Качество: WEB-DL 720p | AMZN Видео: 1280x640 at 23.976 fps, MPEG-4 AVC, ~3767 kbps Аудио 1: AC3, 6 ch, ~384 kbps - | Русский | Аудио 2: E-AC3, 6 ch, ~640 kbps - | Английский | Формат субтитров: softsub (SRT)
[+] M/IGeneral Unique ID : 234631549261151893441464985809549383889 (0xB08464857F3982DCC6187CBA022DD8D1) Complete name : G:The.Long.Game.2023.MVO.AMZN.WEB-DL.720p.x264.seleZen.mkv Format : Matroska Format version : Version 4 File size : 3.78 GiB Duration : 1 h 52 min Overall bit rate : 4 793 kb/s Frame rate : 23.976 FPS Movie name : The.Long.Game.2023.MVO.AMZN.WEB-DL.720p.x264.seleZen Encoded date : 2024-06-30 16:14:29 UTC Writing application : mkvmerge v85.0 ('Shame For You') 64-bit Writing library : libebml v1.4.5 + libmatroska v1.7.1 Cover : Yes Attachments : cover.jpg / small_cover.jpg Video ID : 1 Format : AVC Format/Info : Advanced Video Codec Format profile : High@L3.1 Format settings : CABAC / 4 Ref Frames Format settings, CABAC : Yes Format settings, Reference : 4 frames Codec ID : V_MPEG4/ISO/AVC Duration : 1 h 52 min Bit rate mode : Constant Bit rate : 3 767 kb/s Nominal bit rate : 4 000 kb/s Width : 1 280 pixels Height : 640 pixels Display aspect ratio : 2.000 Frame rate mode : Constant Frame rate : 23.976 (24000/1001) FPS Color space : YUV Chroma subsampling : 4:2:0 Bit depth : 8 bits Scan type : Progressive Bits/(Pixel*Frame) : 0.192 Stream size : 2.97 GiB (79%) Title : -=DoMiNo=- Language : English Default : Yes Forced : No Color range : Limited Color primaries : BT.709 Transfer characteristics : BT.709 Matrix coefficients : BT.709 Audio #1 ID : 2 Format : AC-3 Format/Info : Audio Coding 3 Commercial name : Dolby Digital Codec ID : A_AC3 Duration : 1 h 52 min Bit rate mode : Constant Bit rate : 384 kb/s Channel(s) : 6 channels Channel layout : L R C LFE Ls Rs Sampling rate : 48.0 kHz Frame rate : 31.250 FPS (1536 SPF) Compression mode : Lossy Stream size : 310 MiB (8%) Title : MVO -TVShows Language : Russian Service kind : Complete Main Default : Yes Forced : No Dialog Normalization : -31 dB cmixlev : -4.5 dB surmixlev : -6 dB dialnorm_Average : -31 dB dialnorm_Minimum : -31 dB dialnorm_Maximum : -31 dB Audio #2 ID : 3 Format : E-AC-3 Format/Info : Enhanced AC-3 Commercial name : Dolby Digital Plus Codec ID : A_EAC3 Duration : 1 h 52 min Bit rate mode : Constant Bit rate : 640 kb/s Channel(s) : 6 channels Channel layout : L R C LFE Ls Rs Sampling rate : 48.0 kHz Frame rate : 31.250 FPS (1536 SPF) Compression mode : Lossy Stream size : 516 MiB (13%) Language : English Service kind : Complete Main Default : No Forced : No Dialog Normalization : -31 dB compr : -0.28 dB dialnorm_Average : -31 dB dialnorm_Minimum : -31 dB dialnorm_Maximum : -31 dB Text #1 ID : 4 Format : UTF-8 Codec ID : S_TEXT/UTF8 Codec ID/Info : UTF-8 Plain Text Duration : 1 h 51 min Bit rate : 74 b/s Frame rate : 0.346 FPS Count of elements : 2316 Stream size : 61.1 KiB (0%) Title : SDH Language : English Default : No Forced : No Text #2 ID : 5 Format : UTF-8 Codec ID : S_TEXT/UTF8 Codec ID/Info : UTF-8 Plain Text Duration : 1 h 42 min Bit rate : 73 b/s Frame rate : 0.316 FPS Count of elements : 1942 Stream size : 54.9 KiB (0%) Language : English Default : No Forced : No Menu 00:00:00.000 : en:Scene 01 01:46:20.000 : en:End Credits
Релиз: Присоединяйся к: Кликай на баннеры.

Всего файлов в раздаче: 1 
The.Long.Game.2023.MVO.AMZN.WEB-DL.720p.x264.seleZen.mkv3.78 GB

Похожие раздачи по запросу - Игра
2024-07-12 magnet Иван Страхатов - Вся жизнь-игра (2024) MP3 79.19 MB ↑ 0 ↓ 0
2024-07-06 magnet Игра королевы / Firebrand (2023) UHD WEB-DL-HEVC 2160p | 4K | SDR | D | Мосфильм-Мастер 10.48 GB ↑ 0 ↓ 1
2024-07-05 magnet Игра королевы / Firebrand (2023) WEB-DLRip от DoMiNo & селезень | D | Мосфильм-Мастер 1.46 GB ↑ 0 ↓ 0
2024-07-05 magnet Игра королевы / Firebrand (2023) WEB-DLRip 720p от DoMiNo & селезень | D | Мосфильм-Мастер 2.31 GB ↑ 0 ↓ 0
2024-07-01 magnet Игра джентльменов / Долгая игра / The Long Game (2023) WEB-DLRip-AVC | P | TVShows 2.32 GB ↑ 0 ↓ 1
2024-07-01 magnet Игра джентльменов / Долгая игра / The Long Game (2023) WEB-DLRip от New-Team | P | TVShows 1.47 GB ↑ 0 ↓ 0
2024-07-01 magnet Игра джентльменов / Долгая игра / The Long Game (2023) WEB-DL 1080p от New-Team | P | TVShows 8.12 GB ↑ 1 ↓ 1

Комментарии


Зарегистрируйтесь чтобы добавить комментарий
Торрент клиент
byTorrent - программа для загрузки торрент-файлов.

Скачать byTorrent.exe (1,5 МБ)

Скачать byTorrent.zip (0,6 МБ)

Поддержи torrent.by
российских рублей
(300 российских рублей это 4$)

Обратная связь rss

End game ©